专注4K家庭影音, 服务千万家庭影音发烧友!

[4k演示视频] 索尼4K HDR 60fps高码率演示视频

xxbhpan 发表于 2020-6-20 16:18:43 | 显示全部楼层
本帖最后由 xxbhpan 于 2020-7-28 15:28 编辑

片名:索尼4K HDR 60fps高码率演示视频

播放画面预览:
Snipaste_2020-06-20_16-13-03.jpg

Snipaste_2020-06-20_16-11-53.jpg

Snipaste_2020-06-20_16-12-24.jpg


演示片参数(从Potplayer播放器中提取):
  1. General
  2. Format                         : MPEG-4
  3. Format profile                 : Base Media / Version 2
  4. Codec ID                       : mp42 (mp42/iso4)
  5. File size                      : 726 MiB
  6. Duration                       : 1 min 22 s
  7. Overall bit rate               : 74.2 Mb/s
  8. Encoded date                   : UTC 2017-02-27 02:06:58
  9. Tagged date                    : UTC 2017-02-27 02:06:58
  10. Video
  11. ID                             : 1
  12. Format                         : HEVC
  13. Format/Info                    : High Efficiency Video Coding
  14. Format profile                 : Main 10@L5.1@High
  15. HDR format                     : SMPTE ST 2086, HDR10 compatible
  16. Codec ID                       : hvc1
  17. Codec ID/Info                  : High Efficiency Video Coding
  18. Duration                       : 1 min 22 s
  19. Bit rate                       : 74.0 Mb/s
  20. Width                          : 3 840 pixels
  21. Height                         : 2 160 pixels
  22. Display aspect ratio           : 16:9
  23. Frame rate mode                : Constant
  24. Frame rate                     : 59.940 (60000/1001) FPS
  25. Color space                    : YUV
  26. Chroma subsampling             : 4:2:0 (Type 2)
  27. Bit depth                      : 10 bits
  28. Bits/(Pixel*Frame)             : 0.149
  29. Stream size                    : 725 MiB (100%)
  30. Encoded date                   : UTC 2017-02-27 02:06:58
  31. Tagged date                    : UTC 2017-02-27 02:06:58
  32. Color range                    : Limited
  33. Color primaries                : BT.2020
  34. Transfer characteristics       : PQ
  35. Matrix coefficients            : BT.2020 non-constant
  36. Mastering display color primar : R: x=1.000000 y=1.000000, G: x=1.000000 y=1.000000, B: x=1.000000 y=1.000000, White point: x=1.000000 y=1.000000
  37. Mastering display luminance    : min: 0.1000 cd/m2, max: 1 cd/m2
  38. Codec configuration box        : hvcC
  39. Audio
  40. ID                             : 2
  41. Format                         : AAC LC
  42. Format/Info                    : Advanced Audio Codec Low Complexity
  43. Codec ID                       : mp4a-40-2
  44. Duration                       : 1 min 22 s
  45. Bit rate mode                  : Constant
  46. Bit rate                       : 192 kb/s
  47. Channel(s)                     : 2 channels
  48. Channel layout                 : L R
  49. Sampling rate                  : 48.0 kHz
  50. Frame rate                     : 46.875 FPS (1024 SPF)
  51. Compression mode               : Lossy
  52. Stream size                    : 1.88 MiB (0%)
  53. Language                       : English
  54. Encoded date                   : UTC 2017-02-27 02:06:58
  55. Tagged date                    : UTC 2017-02-27 02:06:58
复制代码



索尼4K HDR 60fps高码率演示视频下载链接(百度网盘)
链接:https://pan.baidu.com/s/1Ius47Td2ouDAClnZUuS8pA
提取码:8bns
base64加密链接(内容同上,请使用https://base64.supfree.net/进行解密):
JXU3RDIyJXU1QzNDNEslMjBIRFIlMjA2MGZwcyV1OUFEOCV1NzgwMSV1NzM4NyV1NkYxNCV1NzkzQSV1ODlDNiV1OTg5MSV1NEUwQiV1OEY3RCV1OTRGRSV1NjNBNSV1RkYwOCV1NzY3RSV1NUVBNiV1N0Y1MSV1NzZEOCV1RkYwOSUwQSV1OTRGRSV1NjNBNSV1RkYxQWh0dHBzJTNBLy9wYW4uYmFpZHUuY29tL3MvMUl1czQ3VGQyb3VEQUNsblpVdVM4cEElMjAlMEEldTYzRDAldTUzRDYldTc4MDEldUZGMUE4Ym5z

谢谢!



回复

使用道具 举报

发烧友评论11

倒序浏览
洞房不败 发表于 2020-6-20 23:52:23 | 显示全部楼层
虽然我很早以前就有这个视频了
但还是要给楼主强大的专业精神点个赞
回复 支持 1 反对 0

使用道具 举报

igcaxxm 发表于 2020-7-28 13:31:33 | 显示全部楼层
楼主专业,点个赞拿走了
回复 支持 反对

使用道具 举报

xxbhpan 发表于 2020-6-24 21:46:15 | 显示全部楼层
312412118 发表于 2020-6-23 11:42
非常感谢 终于找到了 全网资源都断了

不客气,如果连接失效了随时留言哦
回复 支持 反对

使用道具 举报

 楼主| njcy 发表于 2020-6-23 14:05:22 | 显示全部楼层
感谢分享!很漂亮
回复 支持 反对

使用道具 举报

312412118 发表于 2020-6-23 11:42:54 | 显示全部楼层
非常感谢 终于找到了 全网资源都断了
回复 支持 反对

使用道具 举报

xxbhpan 发表于 2020-6-21 15:19:32 | 显示全部楼层
洞房不败 发表于 2020-6-20 23:52
虽然我很早以前就有这个视频了
但还是要给楼主强大的专业精神点个赞

哈哈哈,感谢
回复 支持 反对

使用道具 举报

 楼主| 88012363 发表于 2020-6-21 09:19:42 | 显示全部楼层
大爱,感谢分享
回复 支持 反对

使用道具 举报

heartzc 发表于 2020-6-20 18:10:56 Hao4K手机版 | 显示全部楼层
感谢分享!应该很漂亮的!
回复 支持 反对

使用道具 举报

您需要登录后才可以回帖 登录 | 立即注册

本版积分规则

在线客服

在线客服

服务时间 9:00—18:00

返回顶部

关注微信公众号第一时间推送精彩

官方微信

手机访问

Hao4K影音

专注4k家庭影音,提供家庭影音社区,家庭影音器材库,影音问答平台,影音商城,服务千万家庭影音用户。

本站内容部分由用户自主分享和转载自互联网,转载目的在于传递更多信息,并不代表本网赞同其观点和对其真实性负责。

如有侵权、违反国家法律政策行为,请联系我们,我们会第一时间及时清除和处理!

举报反馈邮箱:admin@hao4k.cn

Copyright  2019-2020  Hao4K影音粤公网安备 44030302001429号    ( 粤ICP备18155646号-1 )|网站地图