专注4K家庭影音, 服务千万家庭影音发烧友!

事物的摆动4k The.Swing.of.Things.2020.HDR.2160p.WEB.H265电影下载

 关闭
老顽童 发表于 2020-7-6 07:29:31 | 显示全部楼层
电影频道
电影封面:
片  名: 事物的摆动4k
电影分类: 动作 喜剧 
国  家: 美国 
年  代: 2020年
分 辨 率: 4K(3840x2160)
电影格式: MKV|REMUX 
画质标准: HDR 
音质编码: Dolby Digital Plus Audio 
电影声道: 其他 
帧数/FPS: 23.976 FPS
电影语言: 英文原版 
资源大小: 10.15 GB
导  演: Matt Shapira
豆瓣评分: 8 分
中文字幕: /thread-49233-1-1.html
剧情简介: 一个新郎不小心在牙买加的一个swingers度假胜地预定了他的目的地婚礼和蜜月。
事物的摆动4k The.Swing.of.Things.2020.HDR.2160p.WEB.H265电影信息
  1. Video
  2. ID : 1
  3. Format : HEVC
  4. Format/Info : High Efficiency Video Coding
  5. Format profile : Main 10@L5@Main
  6. HDR format : SMPTE ST 2094 App 4, Version 0
  7. Codec ID : V_MPEGH/ISO/HEVC
  8. Duration : 1 h 33 min
  9. Bit rate : 14.8 Mb/s
  10. Width : 3 840 pixels
  11. Height : 1 600 pixels
  12. Display aspect ratio : 2.40:1
  13. Frame rate mode : Constant
  14. Frame rate : 23.976 (24000/1001) FPS
  15. Standard : NTSC
  16. Color space : YUV
  17. Chroma subsampling : 4:2:0 (Type 2)
  18. Bit depth : 10 bits
  19. Bits/(Pixel*Frame) : 0.100
  20. Stream size : 9.63 GiB (96%)
  21. Language : English
  22. Default : Yes
  23. Forced : No
  24. Color range : Limited
  25. Color primaries : BT.2020
  26. Transfer characteristics : PQ
  27. Matrix coefficients : BT.2020 non-constant
  28. Mastering display color primaries : Display P3
  29. Mastering display luminance : min: 0.0001 cd/m2, max: 1000 cd/m2
  30. Maximum Content Light Level : 10000 cd/m2
  31. Maximum Frame-Average Light Level : 167 cd/m2

  32. Audio
  33. ID : 2
  34. Format : E-AC-3
  35. Format/Info : Enhanced AC-3
  36. Commercial name : Dolby Digital Plus
  37. Codec ID : A_EAC3
  38. Duration : 1 h 33 min
  39. Bit rate mode : Constant
  40. Bit rate : 640 kb/s
  41. Channel(s) : 6 channels
  42. Channel layout : L R C LFE Ls Rs
  43. Sampling rate : 48.0 kHz
  44. Frame rate : 31.250 FPS (1536 SPF)
  45. Compression mode : Lossy
  46. Stream size : 428 MiB (4%)
  47. Title : English
  48. Language : English
  49. Service kind : Complete Main
  50. Default : Yes
  51. Forced : No

  52. Text
  53. ID : 3
  54. Format : UTF-8
  55. Codec ID : S_TEXT/UTF8
  56. Codec ID/Info : UTF-8 Plain Text
  57. Duration : 1 h 32 min
  58. Bit rate : 78 b/s
  59. Count of elements : 1587
  60. Stream size : 52.8 KiB (0%)
  61. Title : English (SDH)
  62. Language : English
  63. Default : No
  64. Forced : No
复制代码

事物的摆动4k The.Swing.of.Things.2020.HDR.2160p.WEB.H265电影下载
事物的摆动4k The.Swing.of.Things.2020.HDR.2160p.WEB.H265【10.15 GB】
[Hao4k]事物的摆动4k The.Swing.of.Things.2020.HDR.2160p.WEB.H265-HOTLiPS.torrent
(51.48 KB)
回复

使用道具 举报

您需要登录后才可以回帖 登录 | 立即注册

本版积分规则

在线客服

在线客服

服务时间 9:00—18:00

返回顶部

关注微信公众号第一时间推送精彩

官方微信

手机访问

Hao4K影音

专注4k家庭影音,提供家庭影音社区,家庭影音器材库,影音问答平台,影音商城,服务千万家庭影音用户。

本站内容部分由用户自主分享和转载自互联网,转载目的在于传递更多信息,并不代表本网赞同其观点和对其真实性负责。

如有侵权、违反国家法律政策行为,请联系我们,我们会第一时间及时清除和处理!

举报反馈邮箱:admin@hao4k.cn

Copyright  2019-2020  Hao4K影音粤公网安备 44030302001429号    ( 粤ICP备18155646号-1 )|网站地图