专注4K家庭影音, 服务千万家庭影音发烧友!

[美剧] 芝加哥故事 第三季4k The.Chi.S03E01.2160p.WEB.h265美剧下载

大红色 发表于 2020-7-6 12:05:56 | 显示全部楼层
电视剧频道
电视剧封面:
电视剧名: 芝加哥故事 第三季4k
年  代: 2020  
国  家: 美国
类  别: 剧情 
语  言: 英语
字  幕: 英文原版
上映日期: 2020-06-21
文件格式: mkv    
视频效果: 4K(3840x2160)    
资源大小: 5.69 GB
片  长: 暂无 分钟
导  演: 杰特·威尔金森
剧情简介: Showtime在一月头预定新剧《芝加哥故事 The Chi》,由Lena Waithe、Elwood Reid、Common、Aaron Kaplan的Kapital Entertainment公司以及Fox 21 TV Studios联合制作;本剧去年就已拍摄试映集,但後来回炉重拍才被预订,该剧在美国时间18年1月7日首播。
  本剧由Lena Waithe执笔﹑Rick meijubar.net Famuyiwa执导,讲述了芝加哥南区六个相互联系的人物所呈现的特色故事。角色包括Kevin(Alex R. Hibbert饰演),他是个能在恶劣环境生活﹑自信的13岁少年,原本他的生活很简单,就是痴心班上的一个女孩﹑在邻居之间有群朋友,以及希望某天离开南区。不过他有次在错误的时间出现在错误的地方,目击谋杀现场使他改变了对日常的看法。
  Brandon(Jason Mitchell饰),一个有抱负有自信的年轻人,梦想着有一天能开一家自己的饭店,但是他对于新生活的承诺和对母亲以及在南区生活的弟弟的责任,似乎成为了这个梦想道路上的障碍。Jerrika(Tiffany Boone饰演),Brandon直言不讳的伴侣,她在努力让Brandon妈妈接受自己当儿子的女朋友,不过她为Brandon的选择是明智的。在当餐厅经理的她辛勤工作,就为了让Brandon离开街头幷成为一个大厨。
  Emmett及Jada,全职护士兼单亲妈妈Jada(Yolonda Ross饰演),有着一个鲁莽但有魅力的儿子Emmett(Jacob Latimore饰);Emmett原本是位女商人的伴侣,不过现在得独自抚养他那还在襁褓的孩子,至于Jada在对新成为父亲的Emmett采取严爱时,自己也探索起成年时的烦恼。
  Ronnie(Ntare Guma Mbaho Mwine饰),前军人的他被芝加哥南区的生活拖垮,他平常经常与邻里的朋友打混,不然就是照顾自己祖母。不过某天她的前女友(Ronnie视她儿子如己出)驱使他为一宗谋杀案报仇时,Ronnie为了赢回前女友的心将会走上一条错误的路。
芝加哥故事 第三季4k The.Chi.S03E01.2160p.WEB.h265美剧信息
  1. Video
  2. ID : 1
  3. Format : HEVC
  4. Format/Info : High Efficiency Video Coding
  5. Format profile : Main@L5@Main
  6. Codec ID : V_MPEGH/ISO/HEVC
  7. Duration : 54 min 16 s
  8. Bit rate : 14.6 Mb/s
  9. Width : 3 840 pixels
  10. Height : 2 160 pixels
  11. Display aspect ratio : 16:9
  12. Frame rate mode : Constant
  13. Frame rate : 23.976 (24000/1001) FPS
  14. Color space : YUV
  15. Chroma subsampling : 4:2:0
  16. Bit depth : 8 bits
  17. Bits/(Pixel*Frame) : 0.074
  18. Stream size : 5.55 GiB (97%)
  19. Writing library : x265 2.8hy:[Linux][GCC 7.5.0][64 bit] 8bit
  20. Encoding settings : cpuid=1111039 / frame-threads=1 / no-wpp / no-pmode / no-pme / no-psnr / no-ssim / log-level=2 / input-csp=1 / input-res=3840x2160 / interlace=0 / total-frames=0 / level-idc=0 / high-tier=1 / uhd-bd=0 / ref=4 / no-allow-non-conformance / repeat-headers / annexb / aud / hrd / info / hash=0 / no-temporal-layers / no-open-gop / min-keyint=48 / keyint=48 / gop-lookahead=0 / bframes=4 / b-adapt=2 / b-pyramid / bframe-bias=0 / rc-lookahead=48 / lookahead-slices=4 / scenecut=0 / radl=0 / no-intra-refresh / ctu=64 / min-cu-size=8 / rect / no-amp / max-tu-size=32 / tu-inter-depth=1 / tu-intra-depth=1 / limit-tu=0 / rdoq-level=2 / dynamic-rd=0.00 / no-ssim-rd / signhide / no-tskip / nr-intra=100 / nr-inter=400 / no-constrained-intra / strong-intra-smoothing / max-merge=3 / limit-refs=3 / limit-modes / me=3 / subme=3 / merange=57 / temporal-mvp / weightp / no-weightb / no-analyze-src-pics / deblock=0:0 / sao / no-sao-non-deblock / rd=4 / no-early-skip / rskip / no-fast-intra / no-tskip-fast / no-cu-lossless / no-b-intra / no-splitrd-skip / rdpenalty=0 / psy-rd=0.00 / psy-rdoq=1.00 / no-rd-refine / no-lossless / cbqpoffs=0 / crqpoffs=0 / rc=abr / bitrate=15000 / qcomp=0.60 / qpstep=4 / stats-write=0 / stats-read=2 / cplxblur=20.0 / qblur=0.5 / vbv-maxrate=18000 / vbv-bufsize=12000 / vbv-init=0.6 / vbv-end=0.6 / vbv-end-fr-adj=0.0 / ipratio=1.40 / pbratio=1.30 / aq-mode=1 / aq-strength=1.00 / cutree / zone-count=0 / no-strict-cbr / qg-size=32 / no-rc-grain / qpmax=69 / qpmin=0 / no-const-vbv / sar=1 / overscan=0 / videoformat=5 / range=0 / colorprim=1 / transfer=1 / colormatrix=1 / chromaloc=0 / display-window=0 / max-cll=0,0 / min-luma=0 / max-luma=255 / log2-max-poc-lsb=8 / vui-timing-info / vui-hrd-info / no-concatenation / slices=1 / no-opt-qp-pps / no-opt-ref-list-length-pps / no-multi-pass-opt-rps / scenecut-bias=0.05 / no-opt-cu-delta-qp / no-aq-motion / no-hdr / no-hdr-opt / no-dhdr10-opt / no-idr-recovery-sei / analysis-reuse-level=5 / scale-factor=0 / refine-intra=0 / refine-inter=0 / refine-mv=0 / no-limit-sao / ctu-info=0 / no-lowpass-dct / refine-mv-type=0 / copy-pic=1 / max-ausize-factor=1.0 / no-dynamic-refine / no-single-sei
  21. Language : English
  22. Default : Yes
  23. Forced : No
  24. Color range : Limited
  25. Color primaries : BT.709
  26. Transfer characteristics : BT.709
  27. Matrix coefficients : BT.709

  28. Audio
  29. ID : 2
  30. Format : AC-3
  31. Format/Info : Audio Coding 3
  32. Commercial name : Dolby Digital
  33. Codec ID : A_AC3
  34. Duration : 54 min 16 s
  35. Bit rate mode : Constant
  36. Bit rate : 384 kb/s
  37. Channel(s) : 6 channels
  38. Channel layout : L R C LFE Ls Rs
  39. Sampling rate : 48.0 kHz
  40. Frame rate : 31.250 FPS (1536 SPF)
  41. Bit depth : 16 bits
  42. Compression mode : Lossy
  43. Stream size : 149 MiB (3%)
  44. Language : English
  45. Service kind : Complete Main
  46. Default : Yes
  47. Forced : No

  48. Text
  49. ID : 3
  50. Format : UTF-8
  51. Codec ID : S_TEXT/UTF8
  52. Codec ID/Info : UTF-8 Plain Text
  53. Duration : 54 min 8 s
  54. Bit rate : 87 b/s
  55. Count of elements : 1201
  56. Stream size : 34.8 KiB (0%)
  57. Title : English
  58. Language : English
  59. Default : No
  60. Forced : No
复制代码

芝加哥故事 第三季4k The.Chi.S03E01.2160p.WEB.h265美剧下载

芝加哥故事 第三季4k The.Chi.S03E01.2160p.WEB.h265【5.69 GB】
芝加哥故事 第三季4k The.Chi.S03E01.2160p.WEB.h265-NiXON[rartv].torrent
(28.97 KB)
回复

使用道具 举报

发烧友评论1

倒序浏览
18520199909 发表于 2020-7-6 13:15:10 Hao4K手机版 | 显示全部楼层
感谢分享,
回复 支持 反对

使用道具 举报

您需要登录后才可以回帖 登录 | 立即注册

本版积分规则

在线客服

在线客服

服务时间 9:00—18:00

返回顶部

关注微信公众号第一时间推送精彩

官方微信

手机访问

Hao4K影音

专注4k家庭影音,提供家庭影音社区,家庭影音器材库,影音问答平台,影音商城,服务千万家庭影音用户。

本站内容部分由用户自主分享和转载自互联网,转载目的在于传递更多信息,并不代表本网赞同其观点和对其真实性负责。

如有侵权、违反国家法律政策行为,请联系我们,我们会第一时间及时清除和处理!

举报反馈邮箱:admin@hao4k.cn

Copyright  2019-2020  Hao4K影音粤公网安备 44030302001429号    ( 粤ICP备18155646号-1 )|网站地图