专注4K家庭影音, 服务千万家庭影音发烧友!

前哨4k The.Outpost.2020.2160p.WEB.H265电影下载

 
老顽童 发表于 2020-7-7 17:31:14 | 显示全部楼层
电影频道
电影封面:
片  名: 前哨4k
电影分类: 战争 剧情 历史 
国  家: 美国 
年  代: 2017年
分 辨 率: 4K(3840x2160)
电影格式: MKV|REMUX 
画质标准: HDR 
音质编码: Dolby Digital Plus Audio 
电影声道: 其他 
帧数/FPS: 23.976 FPS
电影语言: 英文原版 
资源大小: 10.33 GB
导  演: 罗德·拉里
豆瓣评分: 7.0 分
中文字幕: /thread-48240-1-1.html
剧情简介: 斯科特·伊斯特伍德、卡赖伯·兰德里·琼斯、奥兰多·布鲁姆将主演Millennium Media打造的阿富汗战争题材影片[前哨](The Outpost,暂译)。罗德·拉里执导影片,影片则根据CNN记者Jake Tapper著作改编。影片故事将围绕53名美国士兵的真实故事展开,这些士兵与阿富汗东北部约400名敌方武装分子拉开持久的作战。他们所建造的前哨基地位于巴基斯坦边境仅14英里处的三处陡峭山脉底部。基地则面临塔利班恐怖分子的袭击。而驻扎在那里的士兵则面临着巨大威胁。片中斯科特·伊斯特伍德扮演克林特·罗马沙军士,卡赖伯·兰德里·琼斯扮演专业军士Ty Michael Carter,布鲁姆扮演的Benjamin D. Keating在阿富汗战争中不幸丧生。该片预计将在今年8月展开拍摄,影片也将在戛纳电影节寻找买家。
72小时前哨救援(台) / 前哨基地/前哨4k The.Outpost.2020.2160p.WEB.H265电影信息
  1. Video
  2. ID : 1
  3. Format : HEVC
  4. Format/Info : High Efficiency Video Coding
  5. Format profile : Main@L5@Main
  6. Codec ID : V_MPEGH/ISO/HEVC
  7. Duration : 2 h 3 min
  8. Bit rate : 11.6 Mb/s
  9. Width : 3 840 pixels
  10. Height : 2 160 pixels
  11. Display aspect ratio : 16:9
  12. Frame rate mode : Constant
  13. Frame rate : 23.976 (24000/1001) FPS
  14. Color space : YUV
  15. Chroma subsampling : 4:2:0
  16. Bit depth : 8 bits
  17. Bits/(Pixel*Frame) : 0.059
  18. Stream size : 10.0 GiB (98%)
  19. Writing library : x265 3.0:[Linux][GCC 4.8.5][64 bit] 8bit
  20. Encoding settings : cpuid=1111039 / frame-threads=6 / wpp / no-pmode / no-pme / no-psnr / no-ssim / log-level=2 / input-csp=1 / input-res=3840x2160 / interlace=0 / total-frames=0 / level-idc=0 / high-tier=1 / uhd-bd=0 / ref=3 / no-allow-non-conformance / no-repeat-headers / annexb / no-aud / no-hrd / info / hash=0 / no-temporal-layers / no-open-gop / min-keyint=4 / keyint=48 / gop-lookahead=0 / bframes=4 / b-adapt=2 / b-pyramid / bframe-bias=0 / rc-lookahead=80 / lookahead-slices=4 / scenecut=0 / radl=0 / no-splice / no-intra-refresh / ctu=64 / min-cu-size=8 / rect / no-amp / max-tu-size=32 / tu-inter-depth=1 / tu-intra-depth=1 / limit-tu=0 / rdoq-level=2 / dynamic-rd=0.00 / no-ssim-rd / signhide / no-tskip / nr-intra=0 / nr-inter=0 / no-constrained-intra / strong-intra-smoothing / max-merge=3 / limit-refs=3 / limit-modes / me=2 / subme=3 / merange=64 / temporal-mvp / weightp / no-weightb / no-analyze-src-pics / deblock=0:0 / no-sao / no-sao-non-deblock / rd=4 / no-early-skip / no-rskip / no-fast-intra / no-tskip-fast / no-cu-lossless / no-b-intra / no-splitrd-skip / rdpenalty=0 / psy-rd=4.00 / psy-rdoq=10.00 / no-rd-refine / no-lossless / cbqpoffs=0 / crqpoffs=0 / rc=abr / bitrate=12000 / qcomp=0.60 / qpstep=1 / stats-write=0 / stats-read=0 / vbv-maxrate=18000 / vbv-bufsize=18000 / vbv-init=0.9 / ipratio=1.10 / pbratio=1.00 / aq-mode=0 / aq-strength=0.00 / no-cutree / zone-count=0 / no-strict-cbr / qg-size=32 / rc-grain / qpmax=69 / qpmin=0 / const-vbv / sar=1 / overscan=0 / videoformat=5 / range=0 / colorprim=1 / transfer=1 / colormatrix=1 / chromaloc=0 / display-window=0 / max-cll=0,0 / min-luma=0 / max-luma=255 / log2-max-poc-lsb=8 / vui-timing-info / vui-hrd-info / slices=1 / no-opt-qp-pps / no-opt-ref-list-length-pps / no-multi-pass-opt-rps / scenecut-bias=0.05 / no-opt-cu-delta-qp / no-aq-motion / no-hdr / no-hdr-opt / no-dhdr10-opt / no-idr-recovery-sei / analysis-reuse-level=5 / scale-factor=0 / refine-intra=0 / refine-inter=0 / refine-mv=0 / refine-ctu-distortion=0 / no-limit-sao / ctu-info=0 / no-lowpass-dct / refine-analysis-type=0 / copy-pic=1 / max-ausize-factor=1.0 / no-dynamic-refine / no-single-sei / no-hevc-aq / qp-adaptation-range=1.00
  21. Default : Yes
  22. Forced : No
  23. Color range : Limited
  24. Color primaries : BT.709
  25. Transfer characteristics : BT.709
  26. Matrix coefficients : BT.709

  27. Audio
  28. ID : 2
  29. Format : E-AC-3
  30. Format/Info : Enhanced AC-3
  31. Commercial name : Dolby Digital Plus
  32. Codec ID : A_EAC3
  33. Duration : 2 h 3 min
  34. Bit rate mode : Constant
  35. Bit rate : 256 kb/s
  36. Channel(s) : 6 channels
  37. Channel layout : L R C LFE Ls Rs
  38. Sampling rate : 48.0 kHz
  39. Frame rate : 31.250 FPS (1536 SPF)
  40. Compression mode : Lossy
  41. Stream size : 226 MiB (2%)
  42. Language : English
  43. Service kind : Complete Main
  44. Default : Yes
  45. Forced : No

  46. Text
  47. ID : 3
  48. Format : UTF-8
  49. Codec ID : S_TEXT/UTF8
  50. Codec ID/Info : UTF-8 Plain Text
  51. Duration : 2 h 1 min
  52. Bit rate : 82 b/s
  53. Count of elements : 3041
  54. Stream size : 73.8 KiB (0%)
  55. Language : English
  56. Default : No
  57. Forced : No
复制代码

72小时前哨救援(台) / 前哨基地/前哨4k The.Outpost.2020.2160p.WEB.H265电影下载
前哨4k The.Outpost.2020.2160p.WEB.H265【10.33 GB】
[Hao4k]前哨4k The.Outpost.2020.2160p.WEB.H265-HUZZAH.torrent
(52.33 KB)
回复

使用道具 举报

发烧友评论151

倒序浏览
zehao159 发表于 6 天前 | 显示全部楼层

谢谢楼主的分享
回复 支持 反对

使用道具 举报

hahazhu 发表于 2020-9-20 11:32:01 | 显示全部楼层
什么原因没有动静呢?
回复 支持 反对

使用道具 举报

核弹头 发表于 2020-9-19 19:53:13 | 显示全部楼层
必须支持啊
回复 支持 反对

使用道具 举报

gymnastika 发表于 2020-9-10 09:57:51 | 显示全部楼层
这么好的片子,能不支持吗?
回复 支持 反对

使用道具 举报

13795087885 发表于 2020-8-27 07:43:52 | 显示全部楼层
好好好  和好谢谢
回复 支持 反对

使用道具 举报

renbing01 发表于 2020-8-24 10:22:06 | 显示全部楼层
战争片,好片子,可是现在几乎没速度。
回复 支持 反对

使用道具 举报

KevinWindsor 发表于 2020-8-19 13:04:12 Hao4K手机版 | 显示全部楼层
感谢分享资源,我用群晖DS GET下载,添加任务后下载不动,请问要怎么才能正确下载?
回复 支持 反对

使用道具 举报

ariesslibra 发表于 2020-8-14 11:41:36 | 显示全部楼层
小伊斯特伍德
回复 支持 反对

使用道具 举报

mywqwq 发表于 2020-8-11 15:10:16 | 显示全部楼层
感谢楼主分享前哨4k
回复 支持 反对

使用道具 举报

ctpolo777 发表于 2020-8-11 00:51:35 | 显示全部楼层
謝謝版主無私地分享...
回复 支持 反对

使用道具 举报

x150440288 发表于 2020-8-9 22:07:44 | 显示全部楼层
战争的好看,可以下不动呀
回复 支持 反对

使用道具 举报

您需要登录后才可以回帖 登录 | 立即注册

本版积分规则

在线客服

在线客服

服务时间 9:00—18:00

返回顶部

关注微信公众号第一时间推送精彩

官方微信

手机访问

Hao4K影音

专注4k家庭影音,提供家庭影音社区,家庭影音器材库,影音问答平台,影音商城,服务千万家庭影音用户。

本站内容部分由用户自主分享和转载自互联网,转载目的在于传递更多信息,并不代表本网赞同其观点和对其真实性负责。

如有侵权、违反国家法律政策行为,请联系我们,我们会第一时间及时清除和处理!

举报反馈邮箱:admin@hao4k.cn

Copyright  2019-2020  Hao4K影音粤公网安备 44030302001429号    ( 粤ICP备18155646号-1 )|网站地图