专注4K家庭影音, 服务千万家庭影音发烧友!

[日韩剧] 顶级经纪人4k Top.Management.S01.KOREAN.2160p.RED.WEBRip.AAC5.1.VP9韩剧下载

大红色 发表于 2020-7-8 11:02:55 | 显示全部楼层
电视剧频道
电视剧封面:
电视剧名: 顶级经纪人4k
年  代: 2018  
国  家: 韩国
类  别: 喜剧 爱情 
语  言: 其他
字  幕: 英文原版
上映日期: 2018-10-31
文件格式: mkv    
视频效果: 4K(3840x2160)    
资源大小: 41.54 GB
片  长: 30 分钟
导  演: 尹成浩
剧情简介: 改编自网络同名人气小说《Top Management》的网络剧,确定由安孝燮、车银优和徐恩秀搭档演出。该部作品描述艺能企画公司的新人经纪人活用自己的能力,并在业界成功的故事。目前开拍在即,将通过YouTube平台播出。
顶级经纪人4k Top.Management.S01.KOREAN.2160p.RED.WEBRip.AAC5.1.VP9韩剧信息
  1. Video
  2. ID : 1
  3. Format : VP9
  4. Codec ID : V_VP9
  5. Duration : 43 min 0 s
  6. Bit rate : 11.9 Mb/s
  7. Width : 3 840 pixels
  8. Height : 2 160 pixels
  9. Display aspect ratio : 16:9
  10. Frame rate mode : Constant
  11. Frame rate : 23.976 (24000/1001) FPS
  12. Bits/(Pixel*Frame) : 0.060
  13. Stream size : 3.56 GiB (97%)
  14. Default : Yes
  15. Forced : No

  16. Audio
  17. ID : 2
  18. Format : AAC LC
  19. Format/Info : Advanced Audio Codec Low Complexity
  20. Codec ID : A_AAC-2
  21. Duration : 43 min 0 s
  22. Bit rate : 384 kb/s
  23. Channel(s) : 6 channels
  24. Channel layout : C L R Ls Rs LFE
  25. Sampling rate : 48.0 kHz
  26. Frame rate : 46.875 FPS (1024 SPF)
  27. Compression mode : Lossy
  28. Stream size : 119 MiB (3%)
  29. Language : Korean
  30. Default : Yes
  31. Forced : No

  32. Text #1
  33. ID : 3
  34. Format : UTF-8
  35. Codec ID : S_TEXT/UTF8
  36. Codec ID/Info : UTF-8 Plain Text
  37. Duration : 42 min 44 s
  38. Bit rate : 73 b/s
  39. Count of elements : 735
  40. Stream size : 23.1 KiB (0%)
  41. Language : English
  42. Default : Yes
  43. Forced : No

  44. Text #2
  45. ID : 4
  46. Format : UTF-8
  47. Codec ID : S_TEXT/UTF8
  48. Codec ID/Info : UTF-8 Plain Text
  49. Duration : 42 min 44 s
  50. Bit rate : 72 b/s
  51. Count of elements : 734
  52. Stream size : 22.6 KiB (0%)
  53. Language : German
  54. Default : No
  55. Forced : No

  56. Text #3
  57. ID : 5
  58. Format : UTF-8
  59. Codec ID : S_TEXT/UTF8
  60. Codec ID/Info : UTF-8 Plain Text
  61. Duration : 42 min 44 s
  62. Bit rate : 72 b/s
  63. Count of elements : 734
  64. Stream size : 22.6 KiB (0%)
  65. Language : Spanish
  66. Default : No
  67. Forced : No

  68. Text #4
  69. ID : 6
  70. Format : UTF-8
  71. Codec ID : S_TEXT/UTF8
  72. Codec ID/Info : UTF-8 Plain Text
  73. Duration : 42 min 44 s
  74. Bit rate : 77 b/s
  75. Count of elements : 730
  76. Stream size : 24.3 KiB (0%)
  77. Language : French
  78. Default : No
  79. Forced : No

  80. Text #5
  81. ID : 7
  82. Format : UTF-8
  83. Codec ID : S_TEXT/UTF8
  84. Codec ID/Info : UTF-8 Plain Text
  85. Duration : 42 min 44 s
  86. Bit rate : 62 b/s
  87. Count of elements : 715
  88. Stream size : 19.6 KiB (0%)
  89. Language : Japanese
  90. Default : No
  91. Forced : No

  92. Text #6
  93. ID : 8
  94. Format : UTF-8
  95. Codec ID : S_TEXT/UTF8
  96. Codec ID/Info : UTF-8 Plain Text
  97. Duration : 42 min 44 s
  98. Bit rate : 93 b/s
  99. Count of elements : 733
  100. Stream size : 29.4 KiB (0%)
  101. Language : Korean
  102. Default : No
  103. Forced : No

  104. Text #7
  105. ID : 9
  106. Format : UTF-8
  107. Codec ID : S_TEXT/UTF8
  108. Codec ID/Info : UTF-8 Plain Text
  109. Duration : 42 min 48 s
  110. Bit rate : 73 b/s
  111. Count of elements : 745
  112. Stream size : 23.1 KiB (0%)
  113. Language : Portuguese
  114. Default : No
  115. Forced : No
复制代码

顶级经纪人4k Top.Management.S01.KOREAN.2160p.RED.WEBRip.AAC5.1.VP9韩剧下载

顶级经纪人4k Top.Management.S01.KOREAN.2160p.RED.WEBRip.AAC5.1.VP9【41.54 GB】
顶级经纪人4k Top.Management.S01.KOREAN.2160p.RED.WEBRip.AAC5.1.VP9-iNSPiRiT[rartv].torrent
(105.58 KB)
回复

使用道具 举报

发烧友评论5

倒序浏览
cscwin 发表于 2020-9-6 12:31:44 | 显示全部楼层
下来看看好不好看
回复 支持 反对

使用道具 举报

wchl1985 发表于 2020-7-13 15:08:46 | 显示全部楼层
看起来还不错  字幕库找不到字幕啊
回复 支持 反对

使用道具 举报

w701202 发表于 2020-7-9 13:10:57 | 显示全部楼层
字幕字幕?有吗?
回复 支持 反对

使用道具 举报

您需要登录后才可以回帖 登录 | 立即注册

本版积分规则

在线客服

在线客服

服务时间 9:00—18:00

返回顶部

关注微信公众号第一时间推送精彩

官方微信

手机访问

Hao4K影音

专注4k家庭影音,提供家庭影音社区,家庭影音器材库,影音问答平台,影音商城,服务千万家庭影音用户。

本站内容部分由用户自主分享和转载自互联网,转载目的在于传递更多信息,并不代表本网赞同其观点和对其真实性负责。

如有侵权、违反国家法律政策行为,请联系我们,我们会第一时间及时清除和处理!

举报反馈邮箱:admin@hao4k.cn

Copyright  2019-2020  Hao4K影音粤公网安备 44030302001429号    ( 粤ICP备18155646号-1 )|网站地图