专注4K家庭影音, 服务千万家庭影音发烧友!

[美剧] 密西西比 第一季4k One.Mississippi.S01.2160p.AMZN.WEB-DL.x265.10bit.HDR.DDP5.1美剧下载

大红色 发表于 2020-7-8 11:05:29 | 显示全部楼层
电视剧频道
电视剧封面:
电视剧名: 密西西比 第一季4k
年  代: 2016  
国  家: 美国
类  别: 剧情 喜剧 
语  言: 英语
字  幕: 英文原版
上映日期: 2016-09-09
文件格式: mkv    
视频效果: 4K(3840x2160)    
资源大小: 16.52 GB
片  长: 8.6 分钟
导  演: 妮可·哈罗芬瑟 / 肯·卡皮斯
剧情简介: 这部自传性质的喜剧创作灵感源于喜剧明星蒂戈·诺塔罗(Tig Notaro)的亲生经历,讲述母亲去世后她回到自己故乡的故事。蒂戈-诺塔罗是近两年涌现一位单口喜剧明星,她不仅亲自出演,还将和《朱诺》(Juno)编剧迪亚波罗-科迪一同撰写本剧的剧本,知名喜剧明星路易·CK将和科迪、诺塔罗一同担任本剧的监制。
本帖最后由 大红色 于 2020-7-8 11:07 编辑

密西西比 第一季4k One.Mississippi.S01.2160p.AMZN.WEB-DL.x265.10bit.HDR.DDP5.1美剧信息
  1. Video
  2. ID : 1
  3. Format : HEVC
  4. Format/Info : High Efficiency Video Coding
  5. Format profile : Main 10@L5@Main
  6. HDR format : SMPTE ST 2094 App 4, Version 0
  7. Codec ID : V_MPEGH/ISO/HEVC
  8. Duration : 26 min 55 s
  9. Bit rate : 14.5 Mb/s
  10. Width : 3 840 pixels
  11. Height : 2 160 pixels
  12. Display aspect ratio : 16:9
  13. Frame rate mode : Constant
  14. Frame rate : 23.976 (24000/1001) FPS
  15. Standard : NTSC
  16. Color space : YUV
  17. Chroma subsampling : 4:2:0 (Type 2)
  18. Bit depth : 10 bits
  19. Bits/(Pixel*Frame) : 0.073
  20. Stream size : 2.72 GiB (96%)
  21. Default : Yes
  22. Forced : No
  23. Color range : Limited
  24. Color primaries : BT.2020
  25. Transfer characteristics : PQ
  26. Matrix coefficients : BT.2020 non-constant
  27. Mastering display color primaries : Display P3
  28. Mastering display luminance : min: 0.0001 cd/m2, max: 1000 cd/m2
  29. Maximum Content Light Level : 867 cd/m2
  30. Maximum Frame-Average Light Level : 324 cd/m2

  31. Audio
  32. ID : 2
  33. Format : E-AC-3
  34. Format/Info : Enhanced AC-3
  35. Commercial name : Dolby Digital Plus
  36. Codec ID : A_EAC3
  37. Duration : 26 min 55 s
  38. Bit rate mode : Constant
  39. Bit rate : 640 kb/s
  40. Channel(s) : 6 channels
  41. Channel layout : L R C LFE Ls Rs
  42. Sampling rate : 48.0 kHz
  43. Frame rate : 31.250 FPS (1536 SPF)
  44. Compression mode : Lossy
  45. Stream size : 123 MiB (4%)
  46. Title : English
  47. Language : English
  48. Service kind : Complete Main
  49. Default : Yes
  50. Forced : No

  51. Text
  52. ID : 3
  53. Format : UTF-8
  54. Codec ID : S_TEXT/UTF8
  55. Codec ID/Info : UTF-8 Plain Text
  56. Duration : 13 min 20 s
  57. Bit rate : 1 b/s
  58. Count of elements : 6
  59. Stream size : 154 Bytes (0%)
  60. Title : English [Forced]
  61. Language : English
  62. Default : No
  63. Forced : Yes

  64. Menu
  65. 00:00:00.000 : en:Amazon Original
  66. 00:00:05.000 : en:Opening Credits
  67. 00:00:38.000 : en:Tig wakes up in the hospital
  68. 00:01:45.000 : en:Bill makes a suggestion for Tig\'s future
  69. 00:06:07.000 : en:Mick and Girlie visit
  70. 00:09:55.000 : en:Tig and Remy search for Bill\'s cat
  71. 00:10:31.000 : en:The Dixie Mafia assembles
  72. 00:11:52.000 : en:Remy meets Bibby Baxter
  73. 00:14:30.000 : en:Bill asks Mick\'s friends to leave
  74. 00:15:28.000 : en:Tig meets Dalton Green
  75. 00:19:39.000 : en:Mick and Girlie leave
  76. 00:20:50.000 : en:Remy and Tig decide to not tell Bill about Caroline\'s secret
  77. 00:22:25.000 : en:Tig records a set about her mother
  78. 00:25:54.000 : en:End Credits
复制代码

密西西比 第一季4k One.Mississippi.S01.2160p.AMZN.WEB-DL.x265.10bit.HDR.DDP5.1美剧下载

密西西比 第一季4k One.Mississippi.S01.2160p.AMZN.WEB-DL.x265.10bit.HDR.DDP5.1【16.52 GB】
密西西比 第一季4k One.Mississippi.S01.2160p.AMZN.WEB-DL.x265.10bit.HDR.DDP5.1-SE.torrent
(83.59 KB)
回复

使用道具 举报

您需要登录后才可以回帖 登录 | 立即注册

本版积分规则

在线客服

在线客服

服务时间 9:00—18:00

返回顶部

关注微信公众号第一时间推送精彩

官方微信

手机访问

Hao4K影音

专注4k家庭影音,提供家庭影音社区,家庭影音器材库,影音问答平台,影音商城,服务千万家庭影音用户。

本站内容部分由用户自主分享和转载自互联网,转载目的在于传递更多信息,并不代表本网赞同其观点和对其真实性负责。

如有侵权、违反国家法律政策行为,请联系我们,我们会第一时间及时清除和处理!

举报反馈邮箱:admin@hao4k.cn

Copyright  2019-2020  Hao4K影音粤公网安备 44030302001429号    ( 粤ICP备18155646号-1 )|网站地图