专注4K家庭影音, 服务千万家庭影音发烧友!

[美剧] 密西西比 第二季4k One.Mississippi.S02.2160p.AMZN.WEB-DL.x265.10bit.HDR.DDP5.1美剧下载

大红色 发表于 2020-7-8 11:17:31 | 显示全部楼层
电视剧频道
电视剧封面:
电视剧名: 密西西比 第二季4k
年  代: 2017  
国  家: 美国
类  别: 剧情 喜剧 
语  言: 英语
字  幕: 英文原版
上映日期: 2017-09-08
文件格式: mkv    
视频效果: 4K(3840x2160)    
资源大小: 30.53 GB
片  长: 暂无 分钟
导  演: 泰格·诺塔洛
剧情简介: 这部自传性质的喜剧创作灵感源于喜剧明星蒂戈·诺塔罗(Tig Notaro)的亲生经历,讲述母亲去世后她回到自己故乡的故事。蒂戈-诺塔罗是近两年涌现一位单口喜剧明星,她不仅亲自出演,还将和《朱诺》(Juno)编剧迪亚波罗-科迪一同撰写本剧的剧本,知名喜剧明星路易·CK将和科迪、诺塔罗一同担任本剧的监制。
密西西比 第二季4k One.Mississippi.S02.2160p.AMZN.WEB-DL.x265.10bit.HDR.DDP5.1美剧信息
  1. Video
  2. ID : 1
  3. Format : HEVC
  4. Format/Info : High Efficiency Video Coding
  5. Format profile : Main 10@L5@Main
  6. HDR format : SMPTE ST 2094 App 4, Version 0
  7. Codec ID : V_MPEGH/ISO/HEVC
  8. Duration : 29 min 13 s
  9. Bit rate : 14.6 Mb/s
  10. Width : 3 840 pixels
  11. Height : 2 160 pixels
  12. Display aspect ratio : 16:9
  13. Frame rate mode : Constant
  14. Frame rate : 23.976 (24000/1001) FPS
  15. Standard : NTSC
  16. Color space : YUV
  17. Chroma subsampling : 4:2:0 (Type 2)
  18. Bit depth : 10 bits
  19. Bits/(Pixel*Frame) : 0.073
  20. Stream size : 2.97 GiB (96%)
  21. Default : Yes
  22. Forced : No
  23. Color range : Limited
  24. Color primaries : BT.2020
  25. Transfer characteristics : PQ
  26. Matrix coefficients : BT.2020 non-constant
  27. Mastering display color primaries : Display P3
  28. Mastering display luminance : min: 0.0001 cd/m2, max: 1000 cd/m2
  29. Maximum Content Light Level : 1000 cd/m2
  30. Maximum Frame-Average Light Level : 397 cd/m2

  31. Audio
  32. ID : 2
  33. Format : E-AC-3
  34. Format/Info : Enhanced AC-3
  35. Commercial name : Dolby Digital Plus
  36. Codec ID : A_EAC3
  37. Duration : 29 min 13 s
  38. Bit rate mode : Constant
  39. Bit rate : 640 kb/s
  40. Channel(s) : 6 channels
  41. Channel layout : L R C LFE Ls Rs
  42. Sampling rate : 48.0 kHz
  43. Frame rate : 31.250 FPS (1536 SPF)
  44. Compression mode : Lossy
  45. Stream size : 134 MiB (4%)
  46. Title : English
  47. Language : English
  48. Service kind : Complete Main
  49. Default : Yes
  50. Forced : No

  51. Menu
  52. 00:00:00.000 : en:Amazon Original
  53. 00:00:05.000 : en:Opening Credits
  54. 00:00:38.000 : en:Desiree makes breakfast for the family
  55. 00:04:29.000 : en:Kate looks into New Zealand
  56. 00:06:05.000 : en:Remy takes care of Destiny
  57. 00:06:47.000 : en:Bill asks Felicia about his thermostat
  58. 00:07:56.000 : en:Tig and Kate go to Cassandra Night\'s show
  59. 00:11:41.000 : en:Desiree messes with the thermostat
  60. 00:12:56.000 : en:Cassandra is brought onto Tig and Kate\'s show
  61. 00:14:42.000 : en:Bill invites Felicia to dinner
  62. 00:15:24.000 : en:Tig and Cassandra hit it off
  63. 00:18:07.000 : en:Desiree comments on Remy\'s family
  64. 00:20:54.000 : en:Bill goes on a date with Felicia
  65. 00:23:03.000 : en:Tig joins Cassandra at a party
  66. 00:25:10.000 : en:Kate stays in for the night
  67. 00:25:36.000 : en:Bill does his research
  68. 00:28:14.000 : en:End Credits
复制代码

密西西比 第二季4k One.Mississippi.S02.2160p.AMZN.WEB-DL.x265.10bit.HDR.DDP5.1美剧下载

密西西比 第二季4k One.Mississippi.S02.2160p.AMZN.WEBRip.x265.10bit.HDR.DDP5.1【30.53GB】
密西西比 第二季4k One.Mississippi.S02.2160p.AMZN.WEBRip.x265.10bit.HDR.DDP5.1-Tr.torrent
(77.4 KB)
回复

使用道具 举报

您需要登录后才可以回帖 登录 | 立即注册

本版积分规则

在线客服

在线客服

服务时间 9:00—18:00

返回顶部

关注微信公众号第一时间推送精彩

官方微信

手机访问

Hao4K影音

专注4k家庭影音,提供家庭影音社区,家庭影音器材库,影音问答平台,影音商城,服务千万家庭影音用户。

本站内容部分由用户自主分享和转载自互联网,转载目的在于传递更多信息,并不代表本网赞同其观点和对其真实性负责。

如有侵权、违反国家法律政策行为,请联系我们,我们会第一时间及时清除和处理!

举报反馈邮箱:admin@hao4k.cn

Copyright  2019-2020  Hao4K影音粤公网安备 44030302001429号    ( 粤ICP备18155646号-1 )|网站地图