微博 微信

Hao4K影音

[美剧] 永远4k Forever.2018.S01.2160p.AMZN.WEB-DL.x265.10bit.HDR.DDP5.1美剧下载

2020-10-10 21:29:00 16161 1 |只看大图 回帖奖励 |正序浏览 |阅读模式

大红色 帖主

2020-7-9 20:16:17

电视剧频道
电视剧封面:
电视剧名: 永远4k
年  代: 2018  
国  家: 美国
类  别: 喜剧 
语  言: 英语
字  幕: 英文原版
上映日期: 2018-09-14
文件格式: mkv    
视频效果: 4K(3840x2160)    
资源大小: 24.69 GB
片  长: 30 分钟
导  演: 杨维榕 / Matt Hubbard / Aniz Adam Ansari
剧情简介: June and Oscar are a married couple who live a comfortable-but-predictable life in suburban California. For years, they've had the same conversations, eaten the same meals, and taken vacations at the same rented lakehouse. But when June talks Oscar into shaking things up by taking a ski trip, the couple suddenly find themselves in completely unfamiliar territory -- raising questions about love, commitment and their marriage.
白头偕老/永远4k Forever.2018.S01.2160p.AMZN.WEB-DL.x265.10bit.HDR.DDP5.1美剧信息
  1. Video
  2. ID : 1
  3. Format : HEVC
  4. Format/Info : High Efficiency Video Coding
  5. Format profile : Main 10@L5@Main
  6. HDR format : SMPTE ST 2094 App 4, Version 0
  7. Codec ID : V_MPEGH/ISO/HEVC
  8. Duration : 35 min 7 s
  9. Bit rate : 14.4 Mb/s
  10. Width : 3 840 pixels
  11. Height : 2 160 pixels
  12. Display aspect ratio : 16:9
  13. Frame rate mode : Constant
  14. Frame rate : 23.976 (24000/1001) FPS
  15. Standard : NTSC
  16. Color space : YUV
  17. Chroma subsampling : 4:2:0 (Type 2)
  18. Bit depth : 10 bits
  19. Bits/(Pixel*Frame) : 0.072
  20. Stream size : 3.53 GiB (96%)
  21. Default : Yes
  22. Forced : No
  23. Color range : Limited
  24. Color primaries : BT.2020
  25. Transfer characteristics : PQ
  26. Matrix coefficients : BT.2020 non-constant
  27. Mastering display color primaries : Display P3
  28. Mastering display luminance : min: 0.0001 cd/m2, max: 1000 cd/m2
  29. Maximum Content Light Level : 953 cd/m2
  30. Maximum Frame-Average Light Level : 51 cd/m2

  31. Audio
  32. ID : 2
  33. Format : E-AC-3
  34. Format/Info : Enhanced AC-3
  35. Commercial name : Dolby Digital Plus
  36. Codec ID : A_EAC3
  37. Duration : 35 min 7 s
  38. Bit rate mode : Constant
  39. Bit rate : 640 kb/s
  40. Channel(s) : 6 channels
  41. Channel layout : L R C LFE Ls Rs
  42. Sampling rate : 48.0 kHz
  43. Frame rate : 31.250 FPS (1536 SPF)
  44. Compression mode : Lossy
  45. Stream size : 161 MiB (4%)
  46. Title : English
  47. Language : English
  48. Service kind : Complete Main
  49. Default : Yes
  50. Forced : No

  51. Menu
  52. 00:00:00.000 : en:Amazon Original
  53. 00:00:05.000 : en:Title Sequence
  54. 00:00:24.000 : en:Andre and Sarah meet at an Open House
  55. 00:10:30.000 : en:Sarah and Andre reconnect
  56. 00:17:14.000 : en:Sarah and Andre wonder what their lives could have been like
  57. 00:24:25.000 : en:Andre and Sarah make a tough decision
  58. 00:30:07.000 : en:Missed chances
  59. 00:33:38.000 : en:End Credits
复制代码

白头偕老/永远4k Forever.2018.S01.2160p.AMZN.WEB-DL.x265.10bit.HDR.DDP5.1美剧下载

永远4k Forever.2018.S01.2160p.AMZN.WEB-DL.x265.10bit.HDR.DDP5.1【24.69 GB】
永远4k Forever.2018.S01.2160p.AMZN.WEB-DL.x265.10bit.HDR.DDP5.1-SERIOUSLY[rartv].torrent (62.84 KB)
回复

使用道具 举报

全部回复1

HWyt 发表于 2020-10-10 21:29:00

HWyt 2

2020-10-10 21:29:00

下来看看,谢谢分享。
60%左右卡住了,没有资源了
回复 支持 反对

使用道具 举报

   发表回复

您需要登录后才可以回帖 登录 | 立即注册

返回列表 本版积分规则

:
白银玩家
:
未填写

主题

帖子

积分1167

  • 在线客服

  • 返回顶部