专注4K家庭影音, 服务千万家庭影音发烧友!

[美剧] 小声音 第一季4k Little.Voice.S01E01.2160p.WEB.h265-4k美剧下载

大红色 发表于 2020-7-10 13:23:46 | 显示全部楼层
电视剧频道
电视剧封面:
电视剧名: 小声音 第一季4k
年  代: 2020  
国  家: 美国
类  别: 剧情 喜剧 
语  言: 中文
字  幕: 中文简体
上映日期: 2020-07-10
文件格式: mkv    
视频效果: 4K(3840x2160)    
资源大小: 47.48 GB
片  长: 30 分钟
导  演: 杰茜·尼尔森
剧情简介: 该剧是献给纽约多元音乐的情书,围绕寻找自己真实的声音和使用它的勇气展开,讲述才华横溢的歌手贝丝·金在遭遇拒绝、爱情和复杂的家庭问题的同时,努力实现自己的梦想的故事。
小嗓门 / 微不足道的声音/小声音 第一季4k Little.Voice.S01E01.2160p.WEB.h265-4k美剧信息
  1. Video
  2. ID : 1
  3. Format : HEVC
  4. Format/Info : High Efficiency Video Coding
  5. Format profile : Main 10@L5@High
  6. HDR format : SMPTE ST 2086, HDR10 compatible
  7. Codec ID : V_MPEGH/ISO/HEVC
  8. Duration : 34 min 3 s
  9. Bit rate : 24.5 Mb/s
  10. Width : 3 840 pixels
  11. Height : 1 920 pixels
  12. Display aspect ratio : 2.000
  13. Frame rate mode : Constant
  14. Frame rate : 23.976 (24000/1001) FPS
  15. Color space : YUV
  16. Chroma subsampling : 4:2:0 (Type 2)
  17. Bit depth : 10 bits
  18. Bits/(Pixel*Frame) : 0.138
  19. Stream size : 5.82 GiB (97%)
  20. Language : English
  21. Default : Yes
  22. Forced : No
  23. Color range : Limited
  24. Color primaries : BT.2020
  25. Transfer characteristics : PQ
  26. Matrix coefficients : BT.2020 non-constant
  27. Mastering display color primaries : Display P3
  28. Mastering display luminance : min: 0.0050 cd/m2, max: 1000 cd/m2
  29. Maximum Content Light Level : 1001 cd/m2
  30. Maximum Frame-Average Light Level : 156 cd/m2

  31. Audio
  32. ID : 2
  33. Format : E-AC-3 JOC
  34. Format/Info : Enhanced AC-3 with Joint Object Coding
  35. Commercial name : Dolby Digital Plus with Dolby Atmos
  36. Codec ID : A_EAC3
  37. Duration : 34 min 3 s
  38. Bit rate mode : Constant
  39. Bit rate : 768 kb/s
  40. Channel(s) : 6 channels
  41. Channel layout : L R C LFE Ls Rs
  42. Sampling rate : 48.0 kHz
  43. Frame rate : 31.250 FPS (1536 SPF)
  44. Compression mode : Lossy
  45. Stream size : 187 MiB (3%)
  46. Language : English
  47. Service kind : Complete Main
  48. Default : Yes
  49. Forced : No
  50. Complexity index : 16
  51. Number of dynamic objects : 15
  52. Bed channel count : 1 channel
  53. Bed channel configuration : LFE

  54. Text #1
  55. ID : 3
  56. Format : UTF-8
  57. Codec ID : S_TEXT/UTF8
  58. Codec ID/Info : UTF-8 Plain Text
  59. Duration : 33 min 18 s
  60. Bit rate : 93 b/s
  61. Count of elements : 494
  62. Stream size : 22.8 KiB (0%)
  63. Title : العربية
  64. Language : Arabic
  65. Default : No
  66. Forced : No

  67. Text #2
  68. ID : 4
  69. Format : UTF-8
  70. Codec ID : S_TEXT/UTF8
  71. Codec ID/Info : UTF-8 Plain Text
  72. Duration : 33 min 18 s
  73. Bit rate : 88 b/s
  74. Count of elements : 471
  75. Stream size : 21.7 KiB (0%)
  76. Title : български
  77. Language : Bulgarian
  78. Default : No
  79. Forced : No

  80. Text #3
  81. ID : 5
  82. Format : UTF-8
  83. Codec ID : S_TEXT/UTF8
  84. Codec ID/Info : UTF-8 Plain Text
  85. Duration : 33 min 18 s
  86. Bit rate : 61 b/s
  87. Count of elements : 489
  88. Stream size : 15.0 KiB (0%)
  89. Title : Čeština
  90. Language : Czech
  91. Default : No
  92. Forced : No

  93. Text #4
  94. ID : 6
  95. Format : UTF-8
  96. Codec ID : S_TEXT/UTF8
  97. Codec ID/Info : UTF-8 Plain Text
  98. Duration : 33 min 18 s
  99. Bit rate : 65 b/s
  100. Count of elements : 470
  101. Stream size : 15.9 KiB (0%)
  102. Title : dansk
  103. Language : Danish
  104. Default : No
  105. Forced : No

  106. Text #5
  107. ID : 7
  108. Format : UTF-8
  109. Codec ID : S_TEXT/UTF8
  110. Codec ID/Info : UTF-8 Plain Text
  111. Duration : 33 min 20 s
  112. Bit rate : 73 b/s
  113. Count of elements : 449
  114. Stream size : 18.0 KiB (0%)
  115. Title : Deutsch
  116. Language : German
  117. Default : No
  118. Forced : No

  119. Text #6
  120. ID : 8
  121. Format : UTF-8
  122. Codec ID : S_TEXT/UTF8
  123. Codec ID/Info : UTF-8 Plain Text
  124. Duration : 33 min 18 s
  125. Bit rate : 104 b/s
  126. Count of elements : 496
  127. Stream size : 25.6 KiB (0%)
  128. Title : Ελληνικά
  129. Language : Greek
  130. Default : No
  131. Forced : No

  132. Text #7
  133. ID : 9
  134. Format : UTF-8
  135. Codec ID : S_TEXT/UTF8
  136. Codec ID/Info : UTF-8 Plain Text
  137. Duration : 33 min 51 s
  138. Bit rate : 74 b/s
  139. Count of elements : 545
  140. Stream size : 18.6 KiB (0%)
  141. Title : English (SDH)
  142. Language : English
  143. Default : No
  144. Forced : No

  145. Text #8
  146. ID : 10
  147. Format : UTF-8
  148. Codec ID : S_TEXT/UTF8
  149. Codec ID/Info : UTF-8 Plain Text
  150. Duration : 33 min 14 s
  151. Bit rate : 64 b/s
  152. Count of elements : 473
  153. Stream size : 15.8 KiB (0%)
  154. Title : English
  155. Language : English
  156. Default : No
  157. Forced : No

  158. Text #9
  159. ID : 11
  160. Format : UTF-8
  161. Codec ID : S_TEXT/UTF8
  162. Codec ID/Info : UTF-8 Plain Text
  163. Duration : 33 min 17 s
  164. Bit rate : 63 b/s
  165. Count of elements : 518
  166. Stream size : 15.6 KiB (0%)
  167. Title : Español (España)
  168. Language : Spanish
  169. Default : No
  170. Forced : No

  171. Text #10
  172. ID : 12
  173. Format : UTF-8
  174. Codec ID : S_TEXT/UTF8
  175. Codec ID/Info : UTF-8 Plain Text
  176. Duration : 33 min 18 s
  177. Bit rate : 63 b/s
  178. Count of elements : 492
  179. Stream size : 15.4 KiB (0%)
  180. Title : Español (Latinoamérica)
  181. Language : Spanish
  182. Default : No
  183. Forced : No

  184. Text #11
  185. ID : 13
  186. Format : UTF-8
  187. Codec ID : S_TEXT/UTF8
  188. Codec ID/Info : UTF-8 Plain Text
  189. Duration : 33 min 18 s
  190. Bit rate : 57 b/s
  191. Count of elements : 470
  192. Stream size : 14.0 KiB (0%)
  193. Title : eesti
  194. Language : Estonian
  195. Default : No
  196. Forced : No

  197. Text #12
  198. ID : 14
  199. Format : UTF-8
  200. Codec ID : S_TEXT/UTF8
  201. Codec ID/Info : UTF-8 Plain Text
  202. Duration : 33 min 18 s
  203. Bit rate : 58 b/s
  204. Count of elements : 489
  205. Stream size : 14.2 KiB (0%)
  206. Title : Suomi
  207. Language : Finnish
  208. Default : No
  209. Forced : No

  210. Text #13
  211. ID : 15
  212. Format : UTF-8
  213. Codec ID : S_TEXT/UTF8
  214. Codec ID/Info : UTF-8 Plain Text
  215. Duration : 33 min 23 s
  216. Bit rate : 61 b/s
  217. Count of elements : 539
  218. Stream size : 15.0 KiB (0%)
  219. Title : Français (France)
  220. Language : French
  221. Default : No
  222. Forced : No

  223. Text #14
  224. ID : 16
  225. Format : UTF-8
  226. Codec ID : S_TEXT/UTF8
  227. Codec ID/Info : UTF-8 Plain Text
  228. Duration : 33 min 47 s
  229. Bit rate : 60 b/s
  230. Count of elements : 540
  231. Stream size : 14.9 KiB (0%)
  232. Title : Français (Canada)
  233. Language : French
  234. Default : No
  235. Forced : No

  236. Text #15
  237. ID : 17
  238. Format : UTF-8
  239. Codec ID : S_TEXT/UTF8
  240. Codec ID/Info : UTF-8 Plain Text
  241. Duration : 33 min 18 s
  242. Bit rate : 93 b/s
  243. Count of elements : 496
  244. Stream size : 22.9 KiB (0%)
  245. Title : עברית
  246. Language : Hebrew
  247. Default : No
  248. Forced : No

  249. Text #16
  250. ID : 18
  251. Format : UTF-8
  252. Codec ID : S_TEXT/UTF8
  253. Codec ID/Info : UTF-8 Plain Text
  254. Duration : 33 min 43 s
  255. Bit rate : 170 b/s
  256. Count of elements : 497
  257. Stream size : 42.2 KiB (0%)
  258. Title : हिन्दी
  259. Language : Hindi
  260. Default : No
  261. Forced : No

  262. Text #17
  263. ID : 19
  264. Format : UTF-8
  265. Codec ID : S_TEXT/UTF8
  266. Codec ID/Info : UTF-8 Plain Text
  267. Duration : 33 min 43 s
  268. Bit rate : 65 b/s
  269. Count of elements : 483
  270. Stream size : 16.1 KiB (0%)
  271. Title : magyar
  272. Language : Hungarian
  273. Default : No
  274. Forced : No

  275. Text #18
  276. ID : 20
  277. Format : UTF-8
  278. Codec ID : S_TEXT/UTF8
  279. Codec ID/Info : UTF-8 Plain Text
  280. Duration : 33 min 18 s
  281. Bit rate : 63 b/s
  282. Count of elements : 493
  283. Stream size : 15.6 KiB (0%)
  284. Title : Bahasa Indonesia
  285. Language : Indonesian
  286. Default : No
  287. Forced : No

  288. Text #19
  289. ID : 21
  290. Format : UTF-8
  291. Codec ID : S_TEXT/UTF8
  292. Codec ID/Info : UTF-8 Plain Text
  293. Duration : 33 min 22 s
  294. Bit rate : 58 b/s
  295. Count of elements : 490
  296. Stream size : 14.4 KiB (0%)
  297. Title : Italiano
  298. Language : Italian
  299. Default : No
  300. Forced : No

  301. Text #20
  302. ID : 22
  303. Format : UTF-8
  304. Codec ID : S_TEXT/UTF8
  305. Codec ID/Info : UTF-8 Plain Text
  306. Duration : 33 min 48 s
  307. Bit rate : 54 b/s
  308. Count of elements : 505
  309. Stream size : 13.5 KiB (0%)
  310. Title : 日本語
  311. Language : Japanese
  312. Default : No
  313. Forced : No

  314. Text #21
  315. ID : 23
  316. Format : UTF-8
  317. Codec ID : S_TEXT/UTF8
  318. Codec ID/Info : UTF-8 Plain Text
  319. Duration : 33 min 18 s
  320. Bit rate : 62 b/s
  321. Count of elements : 490
  322. Stream size : 15.2 KiB (0%)
  323. Title : lietuvių
  324. Language : Lithuanian
  325. Default : No
  326. Forced : No

  327. Text #22
  328. ID : 24
  329. Format : UTF-8
  330. Codec ID : S_TEXT/UTF8
  331. Codec ID/Info : UTF-8 Plain Text
  332. Duration : 33 min 18 s
  333. Bit rate : 65 b/s
  334. Count of elements : 494
  335. Stream size : 16.0 KiB (0%)
  336. Title : latviešu
  337. Language : Latvian
  338. Default : No
  339. Forced : No

  340. Text #23
  341. ID : 25
  342. Format : UTF-8
  343. Codec ID : S_TEXT/UTF8
  344. Codec ID/Info : UTF-8 Plain Text
  345. Duration : 33 min 18 s
  346. Bit rate : 70 b/s
  347. Count of elements : 493
  348. Stream size : 17.1 KiB (0%)
  349. Title : Bahasa Melayu
  350. Language : Malay
  351. Default : No
  352. Forced : No

  353. Text #24
  354. ID : 26
  355. Format : UTF-8
  356. Codec ID : S_TEXT/UTF8
  357. Codec ID/Info : UTF-8 Plain Text
  358. Duration : 33 min 16 s
  359. Bit rate : 49 b/s
  360. Count of elements : 420
  361. Stream size : 12.0 KiB (0%)
  362. Title : Nederlands
  363. Language : Dutch
  364. Default : No
  365. Forced : No

  366. Text #25
  367. ID : 27
  368. Format : UTF-8
  369. Codec ID : S_TEXT/UTF8
  370. Codec ID/Info : UTF-8 Plain Text
  371. Duration : 33 min 18 s
  372. Bit rate : 63 b/s
  373. Count of elements : 488
  374. Stream size : 15.6 KiB (0%)
  375. Title : norsk
  376. Language : Norwegian
  377. Default : No
  378. Forced : No

  379. Text #26
  380. ID : 28
  381. Format : UTF-8
  382. Codec ID : S_TEXT/UTF8
  383. Codec ID/Info : UTF-8 Plain Text
  384. Duration : 33 min 43 s
  385. Bit rate : 59 b/s
  386. Count of elements : 492
  387. Stream size : 14.7 KiB (0%)
  388. Title : polski
  389. Language : Polish
  390. Default : No
  391. Forced : No

  392. Text #27
  393. ID : 29
  394. Format : UTF-8
  395. Codec ID : S_TEXT/UTF8
  396. Codec ID/Info : UTF-8 Plain Text
  397. Duration : 33 min 18 s
  398. Bit rate : 63 b/s
  399. Count of elements : 493
  400. Stream size : 15.5 KiB (0%)
  401. Title : Português
  402. Language : Portuguese
  403. Default : No
  404. Forced : No

  405. Text #28
  406. ID : 30
  407. Format : UTF-8
  408. Codec ID : S_TEXT/UTF8
  409. Codec ID/Info : UTF-8 Plain Text
  410. Duration : 33 min 18 s
  411. Bit rate : 57 b/s
  412. Count of elements : 494
  413. Stream size : 14.1 KiB (0%)
  414. Title : Português (Brasil)
  415. Language : Portuguese
  416. Default : No
  417. Forced : No

  418. Text #29
  419. ID : 31
  420. Format : UTF-8
  421. Codec ID : S_TEXT/UTF8
  422. Codec ID/Info : UTF-8 Plain Text
  423. Duration : 33 min 43 s
  424. Bit rate : 99 b/s
  425. Count of elements : 497
  426. Stream size : 24.5 KiB (0%)
  427. Title : Русский
  428. Language : Russian
  429. Default : No
  430. Forced : No

  431. Text #30
  432. ID : 32
  433. Format : UTF-8
  434. Codec ID : S_TEXT/UTF8
  435. Codec ID/Info : UTF-8 Plain Text
  436. Duration : 33 min 18 s
  437. Bit rate : 56 b/s
  438. Count of elements : 486
  439. Stream size : 13.7 KiB (0%)
  440. Title : Slovenčina
  441. Language : Slovak
  442. Default : No
  443. Forced : No

  444. Text #31
  445. ID : 33
  446. Format : UTF-8
  447. Codec ID : S_TEXT/UTF8
  448. Codec ID/Info : UTF-8 Plain Text
  449. Duration : 33 min 18 s
  450. Bit rate : 55 b/s
  451. Count of elements : 494
  452. Stream size : 13.5 KiB (0%)
  453. Title : slovenščina
  454. Language : Slovenian
  455. Default : No
  456. Forced : No

  457. Text #32
  458. ID : 34
  459. Format : UTF-8
  460. Codec ID : S_TEXT/UTF8
  461. Codec ID/Info : UTF-8 Plain Text
  462. Duration : 33 min 18 s
  463. Bit rate : 61 b/s
  464. Count of elements : 484
  465. Stream size : 15.0 KiB (0%)
  466. Title : Svenska
  467. Language : Swedish
  468. Default : No
  469. Forced : No

  470. Text #33
  471. ID : 35
  472. Format : UTF-8
  473. Codec ID : S_TEXT/UTF8
  474. Codec ID/Info : UTF-8 Plain Text
  475. Duration : 33 min 18 s
  476. Bit rate : 216 b/s
  477. Count of elements : 496
  478. Stream size : 52.7 KiB (0%)
  479. Title : தமிழ்
  480. Language : Tamil
  481. Default : No
  482. Forced : No

  483. Text #34
  484. ID : 36
  485. Format : UTF-8
  486. Codec ID : S_TEXT/UTF8
  487. Codec ID/Info : UTF-8 Plain Text
  488. Duration : 33 min 18 s
  489. Bit rate : 202 b/s
  490. Count of elements : 496
  491. Stream size : 49.3 KiB (0%)
  492. Title : తెలుగు
  493. Language : Telugu
  494. Default : No
  495. Forced : No

  496. Text #35
  497. ID : 37
  498. Format : UTF-8
  499. Codec ID : S_TEXT/UTF8
  500. Codec ID/Info : UTF-8 Plain Text
  501. Duration : 33 min 18 s
  502. Bit rate : 166 b/s
  503. Count of elements : 496
  504. Stream size : 40.5 KiB (0%)
  505. Title : ไทย
  506. Language : Thai
  507. Default : No
  508. Forced : No

  509. Text #36
  510. ID : 38
  511. Format : UTF-8
  512. Codec ID : S_TEXT/UTF8
  513. Codec ID/Info : UTF-8 Plain Text
  514. Duration : 33 min 43 s
  515. Bit rate : 97 b/s
  516. Count of elements : 497
  517. Stream size : 24.1 KiB (0%)
  518. Title : українська
  519. Language : Ukrainian
  520. Default : No
  521. Forced : No

  522. Text #37
  523. ID : 39
  524. Format : UTF-8
  525. Codec ID : S_TEXT/UTF8
  526. Codec ID/Info : UTF-8 Plain Text
  527. Duration : 33 min 43 s
  528. Bit rate : 88 b/s
  529. Count of elements : 495
  530. Stream size : 21.8 KiB (0%)
  531. Title : Tiếng Việt
  532. Language : Vietnamese
  533. Default : No
  534. Forced : No

  535. Text #38
  536. ID : 40
  537. Format : UTF-8
  538. Codec ID : S_TEXT/UTF8
  539. Codec ID/Info : UTF-8 Plain Text
  540. Duration : 33 min 43 s
  541. Bit rate : 61 b/s
  542. Count of elements : 497
  543. Stream size : 15.3 KiB (0%)
  544. Title : 廣東話
  545. Language : Chinese
  546. Default : No
  547. Forced : No

  548. Text #39
  549. ID : 41
  550. Format : UTF-8
  551. Codec ID : S_TEXT/UTF8
  552. Codec ID/Info : UTF-8 Plain Text
  553. Duration : 33 min 43 s
  554. Bit rate : 59 b/s
  555. Count of elements : 497
  556. Stream size : 14.6 KiB (0%)
  557. Title : 中文(繁體)
  558. Language : Chinese
  559. Default : No
  560. Forced : No

  561. Text #40
  562. ID : 42
  563. Format : UTF-8
  564. Codec ID : S_TEXT/UTF8
  565. Codec ID/Info : UTF-8 Plain Text
  566. Duration : 33 min 18 s
  567. Bit rate : 58 b/s
  568. Count of elements : 496
  569. Stream size : 14.3 KiB (0%)
  570. Title : 中文(简体)
  571. Language : Chinese
  572. Default : No
  573. Forced : No
复制代码

小嗓门 / 微不足道的声音/小声音 第一季4k Little.Voice.S01E01.2160p.WEB.h265美剧下载

小声音 第一季4k Little.Voice.S01.2160p.ATVP.WEB-DL.x265.10bit.HDR.DDP5.1.Atmos【47.48GB】
小声音 第一季4k Little.Voice.S01.2160p.ATVP.WEB-DL.x265.10bit.HDR.DDP5.1.Atmos-M.torrent
(119.9 KB)
回复

使用道具 举报

发烧友评论3

倒序浏览
wajames 发表于 2020-8-13 01:38:33 | 显示全部楼层
楼主辛苦了,但是是不是漏了第四集呢?
回复 支持 反对

使用道具 举报

子凡 发表于 2020-7-10 13:37:40 | 显示全部楼层

谢谢楼主分享资源,辛苦
回复 支持 反对

使用道具 举报

您需要登录后才可以回帖 登录 | 立即注册

本版积分规则

在线客服

在线客服

服务时间 9:00—18:00

返回顶部

关注微信公众号第一时间推送精彩

官方微信

手机访问

Hao4K影音

专注4k家庭影音,提供家庭影音社区,家庭影音器材库,影音问答平台,影音商城,服务千万家庭影音用户。

本站内容部分由用户自主分享和转载自互联网,转载目的在于传递更多信息,并不代表本网赞同其观点和对其真实性负责。

如有侵权、违反国家法律政策行为,请联系我们,我们会第一时间及时清除和处理!

举报反馈邮箱:admin@hao4k.cn

Copyright  2019-2020  Hao4K影音粤公网安备 44030302001429号    ( 粤ICP备18155646号-1 )|网站地图