专注4K家庭影音, 服务千万家庭影音发烧友!

[美剧] 大世界之旅 1-3季4k The.Grand.Tour.2016.S01.2160p.AMZN.WEB-DL.x265.10bit.HDR.DDP5.1美剧下载

大红色 发表于 2020-7-12 10:55:09 | 显示全部楼层
电视剧频道
电视剧封面:
电视剧名: 大世界之旅4k
年  代: 2016  
国  家: 美国
类  别:  
语  言: 英语
字  幕: 英文原版
上映日期: 2016-11-18
文件格式: mkv    
视频效果: 4K(3840x2160)    
资源大小: 84.84 GB
片  长: 60 分钟
导  演: 菲尔·查沃德 / 布赖恩·克莱因 / 凯特·林奇·罗宾森
剧情简介:  Follow Jeremy, Richard, and James, as they embark on an adventure across the globe. Driving new and exciting automobiles from manufactures all over the world.
伟大的旅程/大世界之旅4k The.Grand.Tour.2016.S01.2160p.AMZN.WEB-DL.x265.10bit.HDR.DDP5.1美剧信息
  1. Video
  2. ID : 1
  3. Format : HEVC
  4. Format/Info : High Efficiency Video Coding
  5. Format profile : Main 10@L5@Main
  6. HDR format : SMPTE ST 2094 App 4, Version 0
  7. Codec ID : V_MPEGH/ISO/HEVC
  8. Duration : 1 h 11 min
  9. Bit rate : 14.8 Mb/s
  10. Width : 3 840 pixels
  11. Height : 2 160 pixels
  12. Display aspect ratio : 16:9
  13. Frame rate mode : Constant
  14. Frame rate : 23.976 (24000/1001) FPS
  15. Standard : NTSC
  16. Color space : YUV
  17. Chroma subsampling : 4:2:0 (Type 2)
  18. Bit depth : 10 bits
  19. Bits/(Pixel*Frame) : 0.074
  20. Stream size : 7.35 GiB (96%)
  21. Default : Yes
  22. Forced : No
  23. Color range : Limited
  24. Color primaries : BT.2020
  25. Transfer characteristics : PQ
  26. Matrix coefficients : BT.2020 non-constant
  27. Mastering display color primaries : Display P3
  28. Mastering display luminance : min: 0.0001 cd/m2, max: 1000 cd/m2
  29. Maximum Content Light Level : 901 cd/m2
  30. Maximum Frame-Average Light Level : 875 cd/m2

  31. Audio
  32. ID : 2
  33. Format : E-AC-3
  34. Format/Info : Enhanced AC-3
  35. Commercial name : Dolby Digital Plus
  36. Codec ID : A_EAC3
  37. Duration : 1 h 11 min
  38. Bit rate mode : Constant
  39. Bit rate : 640 kb/s
  40. Channel(s) : 6 channels
  41. Channel layout : L R C LFE Ls Rs
  42. Sampling rate : 48.0 kHz
  43. Frame rate : 31.250 FPS (1536 SPF)
  44. Compression mode : Lossy
  45. Stream size : 325 MiB (4%)
  46. Title : E-AC-3 5.1
  47. Language : English
  48. Service kind : Complete Main
  49. Default : Yes
  50. Forced : No

  51. Text #1
  52. ID : 3
  53. Format : UTF-8
  54. Codec ID : S_TEXT/UTF8
  55. Codec ID/Info : UTF-8 Plain Text
  56. Duration : 1 h 10 min
  57. Bit rate : 76 b/s
  58. Count of elements : 1185
  59. Stream size : 39.6 KiB (0%)
  60. Title : English
  61. Language : English
  62. Default : No
  63. Forced : No

  64. Text #2
  65. ID : 4
  66. Format : UTF-8
  67. Codec ID : S_TEXT/UTF8
  68. Codec ID/Info : UTF-8 Plain Text
  69. Duration : 1 h 10 min
  70. Bit rate : 76 b/s
  71. Count of elements : 1186
  72. Stream size : 39.8 KiB (0%)
  73. Title : English (SDH)
  74. Language : English
  75. Default : No
  76. Forced : No

  77. Text #3
  78. ID : 5
  79. Format : UTF-8
  80. Codec ID : S_TEXT/UTF8
  81. Codec ID/Info : UTF-8 Plain Text
  82. Duration : 1 h 9 min
  83. Bit rate : 122 b/s
  84. Count of elements : 1091
  85. Stream size : 62.6 KiB (0%)
  86. Title : Arabic
  87. Language : Arabic
  88. Default : No
  89. Forced : No

  90. Text #4
  91. ID : 6
  92. Format : UTF-8
  93. Codec ID : S_TEXT/UTF8
  94. Codec ID/Info : UTF-8 Plain Text
  95. Duration : 1 h 9 min
  96. Bit rate : 74 b/s
  97. Count of elements : 1091
  98. Stream size : 38.0 KiB (0%)
  99. Title : Chinese (Simplified)
  100. Language : Chinese
  101. Default : No
  102. Forced : No

  103. Text #5
  104. ID : 7
  105. Format : UTF-8
  106. Codec ID : S_TEXT/UTF8
  107. Codec ID/Info : UTF-8 Plain Text
  108. Duration : 1 h 9 min
  109. Bit rate : 65 b/s
  110. Count of elements : 1091
  111. Stream size : 33.7 KiB (0%)
  112. Title : Chinese (Traditional)
  113. Language : Chinese
  114. Default : No
  115. Forced : No

  116. Text #6
  117. ID : 8
  118. Format : UTF-8
  119. Codec ID : S_TEXT/UTF8
  120. Codec ID/Info : UTF-8 Plain Text
  121. Duration : 1 h 9 min
  122. Bit rate : 73 b/s
  123. Count of elements : 1047
  124. Stream size : 37.7 KiB (0%)
  125. Title : Danish
  126. Language : Danish
  127. Default : No
  128. Forced : No

  129. Text #7
  130. ID : 9
  131. Format : UTF-8
  132. Codec ID : S_TEXT/UTF8
  133. Codec ID/Info : UTF-8 Plain Text
  134. Duration : 1 h 9 min
  135. Bit rate : 73 b/s
  136. Count of elements : 1061
  137. Stream size : 37.6 KiB (0%)
  138. Title : Dutch
  139. Language : Dutch
  140. Default : No
  141. Forced : No

  142. Text #8
  143. ID : 10
  144. Format : UTF-8
  145. Codec ID : S_TEXT/UTF8
  146. Codec ID/Info : UTF-8 Plain Text
  147. Duration : 1 h 9 min
  148. Bit rate : 72 b/s
  149. Count of elements : 1050
  150. Stream size : 36.9 KiB (0%)
  151. Title : Finnish
  152. Language : Finnish
  153. Default : No
  154. Forced : No

  155. Text #9
  156. ID : 11
  157. Format : UTF-8
  158. Codec ID : S_TEXT/UTF8
  159. Codec ID/Info : UTF-8 Plain Text
  160. Duration : 1 h 9 min
  161. Bit rate : 78 b/s
  162. Count of elements : 1081
  163. Stream size : 40.2 KiB (0%)
  164. Title : French
  165. Language : French
  166. Default : No
  167. Forced : No

  168. Text #10
  169. ID : 12
  170. Format : UTF-8
  171. Codec ID : S_TEXT/UTF8
  172. Codec ID/Info : UTF-8 Plain Text
  173. Duration : 1 h 9 min
  174. Bit rate : 73 b/s
  175. Count of elements : 934
  176. Stream size : 37.8 KiB (0%)
  177. Title : German
  178. Language : German
  179. Default : No
  180. Forced : No

  181. Text #11
  182. ID : 13
  183. Format : UTF-8
  184. Codec ID : S_TEXT/UTF8
  185. Codec ID/Info : UTF-8 Plain Text
  186. Duration : 1 h 9 min
  187. Bit rate : 114 b/s
  188. Count of elements : 1062
  189. Stream size : 58.6 KiB (0%)
  190. Title : Hebrew
  191. Language : Hebrew
  192. Default : No
  193. Forced : No

  194. Text #12
  195. ID : 14
  196. Format : UTF-8
  197. Codec ID : S_TEXT/UTF8
  198. Codec ID/Info : UTF-8 Plain Text
  199. Duration : 1 h 9 min
  200. Bit rate : 176 b/s
  201. Count of elements : 1091
  202. Stream size : 90.1 KiB (0%)
  203. Title : Hindi
  204. Language : Hindi
  205. Default : No
  206. Forced : No

  207. Text #13
  208. ID : 15
  209. Format : UTF-8
  210. Codec ID : S_TEXT/UTF8
  211. Codec ID/Info : UTF-8 Plain Text
  212. Duration : 1 h 9 min
  213. Bit rate : 79 b/s
  214. Count of elements : 1082
  215. Stream size : 40.8 KiB (0%)
  216. Title : Indonesian
  217. Language : Indonesian
  218. Default : No
  219. Forced : No

  220. Text #14
  221. ID : 16
  222. Format : UTF-8
  223. Codec ID : S_TEXT/UTF8
  224. Codec ID/Info : UTF-8 Plain Text
  225. Duration : 1 h 9 min
  226. Bit rate : 78 b/s
  227. Count of elements : 1082
  228. Stream size : 40.0 KiB (0%)
  229. Title : Italian
  230. Language : Italian
  231. Default : No
  232. Forced : No

  233. Text #15
  234. ID : 17
  235. Format : UTF-8
  236. Codec ID : S_TEXT/UTF8
  237. Codec ID/Info : UTF-8 Plain Text
  238. Duration : 1 h 9 min
  239. Bit rate : 64 b/s
  240. Count of elements : 1016
  241. Stream size : 33.2 KiB (0%)
  242. Title : Japanese
  243. Language : Japanese
  244. Default : No
  245. Forced : No

  246. Text #16
  247. ID : 18
  248. Format : UTF-8
  249. Codec ID : S_TEXT/UTF8
  250. Codec ID/Info : UTF-8 Plain Text
  251. Duration : 1 h 9 min
  252. Bit rate : 87 b/s
  253. Count of elements : 1084
  254. Stream size : 44.9 KiB (0%)
  255. Title : Korean
  256. Language : Korean
  257. Default : No
  258. Forced : No

  259. Text #17
  260. ID : 19
  261. Format : UTF-8
  262. Codec ID : S_TEXT/UTF8
  263. Codec ID/Info : UTF-8 Plain Text
  264. Duration : 1 h 9 min
  265. Bit rate : 72 b/s
  266. Count of elements : 1053
  267. Stream size : 36.9 KiB (0%)
  268. Title : Norwegian
  269. Language : Norwegian
  270. Default : No
  271. Forced : No

  272. Text #18
  273. ID : 20
  274. Format : UTF-8
  275. Codec ID : S_TEXT/UTF8
  276. Codec ID/Info : UTF-8 Plain Text
  277. Duration : 1 h 9 min
  278. Bit rate : 71 b/s
  279. Count of elements : 1061
  280. Stream size : 36.8 KiB (0%)
  281. Title : Polish
  282. Language : Polish
  283. Default : No
  284. Forced : No

  285. Text #19
  286. ID : 21
  287. Format : UTF-8
  288. Codec ID : S_TEXT/UTF8
  289. Codec ID/Info : UTF-8 Plain Text
  290. Duration : 1 h 9 min
  291. Bit rate : 76 b/s
  292. Count of elements : 1077
  293. Stream size : 39.3 KiB (0%)
  294. Title : Portuguese (Brazilian)
  295. Language : Portuguese
  296. Default : No
  297. Forced : No

  298. Text #20
  299. ID : 22
  300. Format : UTF-8
  301. Codec ID : S_TEXT/UTF8
  302. Codec ID/Info : UTF-8 Plain Text
  303. Duration : 1 h 9 min
  304. Bit rate : 121 b/s
  305. Count of elements : 1088
  306. Stream size : 62.0 KiB (0%)
  307. Title : Russian
  308. Language : Russian
  309. Default : No
  310. Forced : No

  311. Text #21
  312. ID : 23
  313. Format : UTF-8
  314. Codec ID : S_TEXT/UTF8
  315. Codec ID/Info : UTF-8 Plain Text
  316. Duration : 1 h 9 min
  317. Bit rate : 76 b/s
  318. Count of elements : 1081
  319. Stream size : 38.9 KiB (0%)
  320. Title : Spanish (Castilian)
  321. Language : Spanish
  322. Default : No
  323. Forced : No

  324. Text #22
  325. ID : 24
  326. Format : UTF-8
  327. Codec ID : S_TEXT/UTF8
  328. Codec ID/Info : UTF-8 Plain Text
  329. Duration : 1 h 9 min
  330. Bit rate : 72 b/s
  331. Count of elements : 1082
  332. Stream size : 37.3 KiB (0%)
  333. Title : Spanish (Latin American)
  334. Language : Spanish
  335. Default : No
  336. Forced : No

  337. Text #23
  338. ID : 25
  339. Format : UTF-8
  340. Codec ID : S_TEXT/UTF8
  341. Codec ID/Info : UTF-8 Plain Text
  342. Duration : 1 h 9 min
  343. Bit rate : 68 b/s
  344. Count of elements : 1042
  345. Stream size : 35.0 KiB (0%)
  346. Title : Swedish
  347. Language : Swedish
  348. Default : No
  349. Forced : No

  350. Text #24
  351. ID : 26
  352. Format : UTF-8
  353. Codec ID : S_TEXT/UTF8
  354. Codec ID/Info : UTF-8 Plain Text
  355. Duration : 1 h 9 min
  356. Bit rate : 211 b/s
  357. Count of elements : 1064
  358. Stream size : 108 KiB (0%)
  359. Title : Tamil
  360. Language : Tamil
  361. Default : No
  362. Forced : No

  363. Text #25
  364. ID : 27
  365. Format : UTF-8
  366. Codec ID : S_TEXT/UTF8
  367. Codec ID/Info : UTF-8 Plain Text
  368. Duration : 1 h 9 min
  369. Bit rate : 197 b/s
  370. Count of elements : 1064
  371. Stream size : 101 KiB (0%)
  372. Title : Telugu
  373. Language : Telugu
  374. Default : No
  375. Forced : No

  376. Text #26
  377. ID : 28
  378. Format : UTF-8
  379. Codec ID : S_TEXT/UTF8
  380. Codec ID/Info : UTF-8 Plain Text
  381. Duration : 1 h 9 min
  382. Bit rate : 171 b/s
  383. Count of elements : 1064
  384. Stream size : 88.0 KiB (0%)
  385. Title : Thai
  386. Language : Thai
  387. Default : No
  388. Forced : No

  389. Text #27
  390. ID : 29
  391. Format : UTF-8
  392. Codec ID : S_TEXT/UTF8
  393. Codec ID/Info : UTF-8 Plain Text
  394. Duration : 1 h 9 min
  395. Bit rate : 75 b/s
  396. Count of elements : 1082
  397. Stream size : 38.7 KiB (0%)
  398. Title : Turkish
  399. Language : Turkish
  400. Default : No
  401. Forced : No

  402. Menu
  403. 00:00:00.000 : en:Amazon Original
  404. 00:00:05.000 : en:I can see clearly now
  405. 00:05:00.000 : en:Three men who need no introduction
  406. 00:07:23.000 : en:A small montage of what you can expect over the next 12 weeks
  407. 00:09:17.000 : en:This is our new traveling studio tent
  408. 00:10:03.000 : en:Welcome to the first ever grand tour
  409. 00:14:03.000 : en:The McLaren P1 versus the Porsche 918
  410. 00:20:48.000 : en:The Ferrari LaFerrari
  411. 00:22:29.000 : en:The Hypercar Holy Trinity
  412. 00:30:26.000 : en:It\'s a segment that we are calling Conversation Street
  413. 00:33:54.000 : en:Our new track is brilliant, fast, and extremely dangerous
  414. 00:37:04.000 : en:BMW M2 versus the Eboladrome
  415. 00:41:31.000 : en:Introducing "The American"
  416. 00:43:20.000 : en:The American tests the BMW M2
  417. 00:44:48.000 : en:We\'re calling it Celebrity Brain Crash
  418. 00:53:41.000 : en:Which hybrid hypercar is the best?
  419. 01:06:49.000 : en:Hybrid hypercar final results
  420. 01:10:25.000 : en:End Credits
复制代码


伟大的旅程/大世界之旅4k The.Grand.Tour.2016.S01.2160p.AMZN.WEB-DL.x265.10bit.HDR.DDP5.1美剧下载

大世界之旅4k The.Grand.Tour.2016.S01.2160p.AMZN.WEB-DL.x265.10bit.HDR.DDP5.1【84.84 GB】
大世界之旅4k The.Grand.Tour.2016.S01.2160p.AMZN.WEB-DL.x265.10bit.HDR.DDP5.1-NOG.torrent
(213.81 KB)
回复

使用道具 举报

发烧友评论9

倒序浏览
speedog 发表于 2020-8-26 17:32:00 | 显示全部楼层
漂亮的资源,感谢分享
回复 支持 反对

使用道具 举报

GoatYang 发表于 2020-7-17 17:45:14 | 显示全部楼层
终于等到你,还好没放弃
回复 支持 反对

使用道具 举报

银座 发表于 2020-7-17 15:40:27 | 显示全部楼层
超级爱三剑客
回复 支持 反对

使用道具 举报

peterzxy 发表于 2020-7-15 15:33:39 | 显示全部楼层
这个一定要下载下来收藏的
回复 支持 反对

使用道具 举报

r31325 发表于 2020-7-13 21:29:10 | 显示全部楼层
这三个猪脚::
回复 支持 反对

使用道具 举报

Bethena 发表于 2020-7-12 12:16:13 | 显示全部楼层
太棒啦,超爱三贱客!
回复 支持 反对

使用道具 举报

您需要登录后才可以回帖 登录 | 立即注册

本版积分规则

在线客服

在线客服

服务时间 9:00—18:00

返回顶部

关注微信公众号第一时间推送精彩

官方微信

手机访问

Hao4K影音

专注4k家庭影音,提供家庭影音社区,家庭影音器材库,影音问答平台,影音商城,服务千万家庭影音用户。

本站内容部分由用户自主分享和转载自互联网,转载目的在于传递更多信息,并不代表本网赞同其观点和对其真实性负责。

如有侵权、违反国家法律政策行为,请联系我们,我们会第一时间及时清除和处理!

举报反馈邮箱:admin@hao4k.cn

Copyright  2019-2020  Hao4K影音粤公网安备 44030302001429号    ( 粤ICP备18155646号-1 )|网站地图