专注4K家庭影音, 服务千万家庭影音发烧友!

[待修复4K资源] 【纪录片】地球脉动/行星地球 第一季 1080P蓝光原盘电影下载

xxbhpan 发表于 2020-7-21 14:49:26 | 显示全部楼层
电影频道
电影封面:
片  名: 地球脉动 第一季 1080P Planet Earth Blu-ray 1080p VC1 DTSHDMA 5.1-TorrenTGui
电影分类: 纪录片 
国  家: 英国 
年  代: 00年代
分 辨 率: 超清(1920x1080)
电影格式: M2TS|BDMV 
画质标准: SDR 
音质编码: Dolby Digital Audio DTS-HD Master Audio 
电影声道: 5.1声道 
帧数/FPS: 23.976 FPS
电影语言: 中文简体 中文繁体 英文原版 
资源大小: 100.87 GB
导  演: 艾雷斯泰·法瑟吉尔
豆瓣评分: 9.7 分
中文字幕: 原盘自带
剧情简介: BBC曾经制作出《蓝色星球》的纪录片摄影团队,再次集结奉上了这部堪称难以超越的经典纪录片《地球脉动》。从南极到北极,从赤道到寒带,从非洲草原到热带雨林,再从荒凉峰顶到深邃大海,难以数计的生物以极其绝美的身姿呈现在世人面前。我们看到了Okavango洪水的涨落及其周边赖以生存的动物们的生存状态,看到了罕见的雪豹在漫天大雪中猎食的珍贵画面;看到了冰原上企鹅、北极熊、海豹等生物相互依存的严苛情景,也见识了生活在大洋深处火山口高温环境下的惊奇生物。当然还有地球各地的壮观美景与奇特地貌,无私地将其最为光艳的一面展现出来。
本片共计11集,期间还采用美国军方发明的空中摄影机拍摄,可从一公里外拍摄某物体的超清晰特写。 ©豆瓣
地球脉动 / 行星地球 / 我们的地球 / 地球无限 / 地球动脉 / 地球无垠 / 地球的力量 / Planet Earth Season 1 / Planet Earth Blu-ray 1080p VC1 DTSHDMA 5.1-TorrenTGui 纪录片信息(有BD1—4,这里只展示BD1中一集的信息,从potplayer中获取)
  1. General
  2. ID                             : 1 (0x1)
  3. Complete name                  : F:\qbittorrent\Planet Earth Blu-ray 1080p VC1 DTSHDMA 5.1-TorrenTGui\BD1\BDMV\STREAM\00026.m2ts
  4. Format                         : BDAV
  5. Format/Info                    : Blu-ray Video
  6. File size                      : 9.14 GiB
  7. Duration                       : 51 min 20 s
  8. Overall bit rate mode          : Variable
  9. Overall bit rate               : 25.5 Mb/s
  10. Maximum Overall bit rate       : 35.5 Mb/s

  11. Video
  12. ID                             : 4113 (0x1011)
  13. Menu ID                        : 1 (0x1)
  14. Format                         : VC-1
  15. Format profile                 : Advanced@L3
  16. Codec ID                       : 234
  17. Duration                       : 51 min 19 s
  18. Width                          : 1 920 pixels
  19. Height                         : 1 080 pixels
  20. Display aspect ratio           : 16:9
  21. Frame rate                     : 23.976 (24000/1001) FPS
  22. Color space                    : YUV
  23. Chroma subsampling             : 4:2:0
  24. Bit depth                      : 8 bits
  25. Scan type                      : Progressive
  26. Compression mode               : Lossy

  27. Audio #1
  28. ID                             : 4352 (0x1100)
  29. Menu ID                        : 1 (0x1)
  30. Format                         : AC-3
  31. Format/Info                    : Audio Coding 3
  32. Commercial name                : Dolby Digital
  33. Codec ID                       : 129
  34. Duration                       : 51 min 20 s
  35. Bit rate mode                  : Constant
  36. Bit rate                       : 448 kb/s
  37. Channel(s)                     : 6 channels
  38. Channel layout                 : L R C LFE Ls Rs
  39. Sampling rate                  : 48.0 kHz
  40. Frame rate                     : 31.250 FPS (1536 SPF)
  41. Compression mode               : Lossy
  42. Stream size                    : 164 MiB (2%)
  43. Language                       : English
  44. Service kind                   : Complete Main

  45. Audio #2
  46. ID                             : 4353 (0x1101)
  47. Menu ID                        : 1 (0x1)
  48. Format                         : DTS XLL
  49. Format/Info                    : Digital Theater Systems
  50. Commercial name                : DTS-HD Master Audio
  51. Muxing mode                    : Stream extension
  52. Codec ID                       : 134
  53. Duration                       : 51 min 18 s
  54. Bit rate mode                  : Variable
  55. Channel(s)                     : 6 channels
  56. Channel layout                 : C L R Ls Rs LFE
  57. Sampling rate                  : 48.0 kHz
  58. Frame rate                     : 93.750 FPS (512 SPF)
  59. Bit depth                      : 16 bits
  60. Compression mode               : Lossless
  61. Language                       : English

  62. Audio #3
  63. ID                             : 4354 (0x1102)
  64. Menu ID                        : 1 (0x1)
  65. Format                         : AC-3
  66. Format/Info                    : Audio Coding 3
  67. Commercial name                : Dolby Digital
  68. Codec ID                       : 129
  69. Duration                       : 51 min 19 s
  70. Bit rate mode                  : Constant
  71. Bit rate                       : 640 kb/s
  72. Channel(s)                     : 6 channels
  73. Channel layout                 : L R C LFE Ls Rs
  74. Sampling rate                  : 48.0 kHz
  75. Frame rate                     : 31.250 FPS (1536 SPF)
  76. Compression mode               : Lossy
  77. Stream size                    : 235 MiB (3%)
  78. Language                       : Chinese
  79. Service kind                   : Complete Main

  80. Audio #4
  81. ID                             : 4355 (0x1103)
  82. Menu ID                        : 1 (0x1)
  83. Format                         : AC-3
  84. Format/Info                    : Audio Coding 3
  85. Commercial name                : Dolby Digital
  86. Codec ID                       : 129
  87. Duration                       : 51 min 19 s
  88. Bit rate mode                  : Constant
  89. Bit rate                       : 384 kb/s
  90. Channel(s)                     : 6 channels
  91. Channel layout                 : L R C LFE Ls Rs
  92. Sampling rate                  : 48.0 kHz
  93. Frame rate                     : 31.250 FPS (1536 SPF)
  94. Compression mode               : Lossy
  95. Stream size                    : 141 MiB (2%)
  96. Language                       : Chinese
  97. Service kind                   : Complete Main

  98. Audio #5
  99. ID                             : 4356 (0x1104)
  100. Menu ID                        : 1 (0x1)
  101. Format                         : AC-3
  102. Format/Info                    : Audio Coding 3
  103. Commercial name                : Dolby Digital
  104. Codec ID                       : 129
  105. Duration                       : 51 min 19 s
  106. Bit rate mode                  : Constant
  107. Bit rate                       : 384 kb/s
  108. Channel(s)                     : 6 channels
  109. Channel layout                 : L R C LFE Ls Rs
  110. Sampling rate                  : 48.0 kHz
  111. Frame rate                     : 31.250 FPS (1536 SPF)
  112. Compression mode               : Lossy
  113. Stream size                    : 141 MiB (2%)
  114. Language                       : Chinese
  115. Service kind                   : Complete Main

  116. Text #1
  117. ID                             : 4608 (0x1200)
  118. Menu ID                        : 1 (0x1)
  119. Format                         : PGS
  120. Codec ID                       : 144
  121. Language                       : English

  122. Text #2
  123. ID                             : 4609 (0x1201)
  124. Menu ID                        : 1 (0x1)
  125. Format                         : PGS
  126. Codec ID                       : 144
  127. Delay relative to video        : 14 s 223 ms
  128. Language                       : French

  129. Text #3
  130. ID                             : 4610 (0x1202)
  131. Menu ID                        : 1 (0x1)
  132. Format                         : PGS
  133. Codec ID                       : 144
  134. Delay relative to video        : 14 s 223 ms
  135. Language                       : Spanish

  136. Text #4
  137. ID                             : 4611 (0x1203)
  138. Menu ID                        : 1 (0x1)
  139. Format                         : PGS
  140. Codec ID                       : 144
  141. Delay relative to video        : 12 s 512 ms
  142. Language                       : Chinese

  143. Text #5
  144. ID                             : 4612 (0x1204)
  145. Menu ID                        : 1 (0x1)
  146. Format                         : PGS
  147. Codec ID                       : 144
  148. Delay relative to video        : 12 s 512 ms
  149. Language                       : Chinese

  150. Text #6
  151. ID                             : 4613 (0x1205)
  152. Menu ID                        : 1 (0x1)
  153. Format                         : PGS
  154. Codec ID                       : 144
  155. Delay relative to video        : 12 s 65 ms
  156. Language                       : Chinese

  157. Text #7
  158. ID                             : 4614 (0x1206)
  159. Menu ID                        : 1 (0x1)
  160. Format                         : PGS
  161. Codec ID                       : 144
  162. Delay relative to video        : 12 s 65 ms
  163. Language                       : Chinese

  164. Text #8
  165. ID                             : 4615 (0x1207)
  166. Menu ID                        : 1 (0x1)
  167. Format                         : PGS
  168. Codec ID                       : 144
  169. Delay relative to video        : 12 s 12 ms
  170. Language                       : Chinese

  171. Text #9
  172. ID                             : 4616 (0x1208)
  173. Menu ID                        : 1 (0x1)
  174. Format                         : PGS
  175. Codec ID                       : 144
  176. Delay relative to video        : 12 s 12 ms
  177. Language                       : Chinese
复制代码
地球脉动 / 行星地球 / 我们的地球 / 地球无限 / 地球动脉 / 地球无垠 / 地球的力量 / Planet Earth Season 1 / Planet Earth Blu-ray 1080p VC1 DTSHDMA 5.1-TorrenTGui 纪录片下载


Planet Earth Blu-ray 1080p VC1 DTSHDMA 5.1-TorrenTGui【100.87GB 1080P蓝光原盘BDISO
Planet Earth Blu-ray 1080p VC1 DTSHDMA 5.1-TorrenTGui.torrent
(543.93 KB, 售价: 2 K币)
回复

使用道具 举报

发烧友评论9

倒序浏览
wk0088 发表于 2020-7-30 21:34:05 | 显示全部楼层
感谢感谢,地球脉动1找了很久了。
回复 支持 1 反对 0

使用道具 举报

xxbhpan 发表于 2020-9-20 15:10:53 | 显示全部楼层
cbz723 发表于 2020-9-20 14:14
蓝色星球第一季也没有2160   bluray照顾了

毕竟人家是在2006年拍摄的,1080P的原盘也够了
回复 支持 反对

使用道具 举报

 楼主| cbz723 发表于 2020-9-20 14:14:59 | 显示全部楼层
蓝色星球第一季也没有2160   bluray照顾了
回复 支持 反对

使用道具 举报

xxbhpan 发表于 2020-9-12 17:51:35 | 显示全部楼层
serenally 发表于 2020-9-11 10:08
BT种子为什么不能点击下载

我刚才试了一下,可以的,我用的是qbittorrent
回复 支持 反对

使用道具 举报

 楼主| serenally 发表于 2020-9-11 10:08:46 | 显示全部楼层
BT种子为什么不能点击下载
回复 支持 反对

使用道具 举报

a30062001 发表于 2020-8-21 21:33:25 | 显示全部楼层
很好的片子
回复 支持 反对

使用道具 举报

xxbhpan 发表于 2020-7-21 18:35:00 | 显示全部楼层
鱼泡 发表于 2020-7-21 16:37
这部纪录片一直都没有出4K原盘

是的,就特别遗憾,4K的效果比1080P要好太多。
回复 支持 反对

使用道具 举报

 楼主| 鱼泡 发表于 2020-7-21 16:37:51 | 显示全部楼层
这部纪录片一直都没有出4K原盘
回复 支持 反对

使用道具 举报

您需要登录后才可以回帖 登录 | 立即注册

本版积分规则


1关注

5粉丝

9帖子

热门图文主题
热门主题
社区广告

在线客服

在线客服

服务时间 9:00—18:00

返回顶部

关注微信公众号第一时间推送精彩

官方微信

手机访问

Hao4K影音

专注4k家庭影音,提供家庭影音社区,家庭影音器材库,影音问答平台,影音商城,服务千万家庭影音用户。

本站内容部分由用户自主分享和转载自互联网,转载目的在于传递更多信息,并不代表本网赞同其观点和对其真实性负责。

如有侵权、违反国家法律政策行为,请联系我们,我们会第一时间及时清除和处理!

举报反馈邮箱:admin@hao4k.cn

Copyright  2019-2020  Hao4K影音粤公网安备 44030302001429号    ( 粤ICP备18155646号-1 )|网站地图