专注4K家庭影音, 服务千万家庭影音发烧友!

[美剧] Rogue.Trip.S01.2160p.DSNP.WEBRip.x265.10bit.HDR.DDP5.1-4k纪录片美剧

大红色 发表于 2020-7-25 11:00:47 | 显示全部楼层
电视剧频道
电视剧封面:
电视剧名: Rogue Trip
年  代: 2020  
国  家: 美国
类  别: 纪录片 
语  言: 英语
字  幕: 英文原版
上映日期: 2020-07-24
文件格式: mkv    
视频效果: 4K(3840x2160)    
资源大小: 24.76 GB
片  长: 暂无 分钟
导  演: 暂无
剧情简介: 著名记者Bob Woodruff带着27岁的儿子Mack环游世界,走访了普通游客最不可能去的所有地方——那些经常被误解、经常被忽视的世界角落,这些角落给人惊喜、惊奇和鼓舞。这是我们大多数人最不可能去的家庭度假。
Rogue.Trip.S01.2160p.DSNP.WEBRip.x265.10bit.HDR.DDP5.1-4k纪录片美剧信息
  1. Video
  2. ID : 1
  3. Format : HEVC
  4. Format/Info : High Efficiency Video Coding
  5. Format profile : Main 10@L5@High
  6. HDR format : SMPTE ST 2086, HDR10 compatible
  7. Codec ID : V_MPEGH/ISO/HEVC
  8. Duration : 38 min 6 s
  9. Bit rate : 16.2 Mb/s
  10. Width : 3 840 pixels
  11. Height : 2 160 pixels
  12. Display aspect ratio : 16:9
  13. Frame rate mode : Constant
  14. Frame rate : 23.976 (24000/1001) FPS
  15. Color space : YUV
  16. Chroma subsampling : 4:2:0
  17. Bit depth : 10 bits
  18. Bits/(Pixel*Frame) : 0.081
  19. Stream size : 4.31 GiB (98%)
  20. Default : Yes
  21. Forced : No
  22. Color range : Limited
  23. Color primaries : BT.2020
  24. Transfer characteristics : PQ
  25. Matrix coefficients : BT.2020 non-constant
  26. Mastering display color primaries : BT.2020
  27. Mastering display luminance : min: 0.0001 cd/m2, max: 1000 cd/m2
  28. Maximum Content Light Level : 954 cd/m2
  29. Maximum Frame-Average Light Level : 32 cd/m2

  30. Audio
  31. ID : 2
  32. Format : E-AC-3
  33. Format/Info : Enhanced AC-3
  34. Commercial name : Dolby Digital Plus
  35. Codec ID : A_EAC3
  36. Duration : 38 min 6 s
  37. Bit rate mode : Constant
  38. Bit rate : 256 kb/s
  39. Channel(s) : 6 channels
  40. Channel layout : L R C LFE Ls Rs
  41. Sampling rate : 48.0 kHz
  42. Frame rate : 31.250 FPS (1536 SPF)
  43. Compression mode : Lossy
  44. Stream size : 69.8 MiB (2%)
  45. Title : English
  46. Language : English
  47. Service kind : Complete Main
  48. Default : Yes
  49. Forced : No

  50. Text #1
  51. ID : 3
  52. Format : UTF-8
  53. Codec ID : S_TEXT/UTF8
  54. Codec ID/Info : UTF-8 Plain Text
  55. Duration : 37 min 58 s
  56. Bit rate : 101 b/s
  57. Count of elements : 588
  58. Stream size : 28.2 KiB (0%)
  59. Title : English [SDH]
  60. Language : English
  61. Default : No
  62. Forced : No

  63. Text #2
  64. ID : 4
  65. Format : UTF-8
  66. Codec ID : S_TEXT/UTF8
  67. Codec ID/Info : UTF-8 Plain Text
  68. Duration : 37 min 55 s
  69. Bit rate : 85 b/s
  70. Count of elements : 578
  71. Stream size : 23.7 KiB (0%)
  72. Title : Castilian [Full]
  73. Language : Spanish
  74. Default : No
  75. Forced : No

  76. Text #3
  77. ID : 5
  78. Format : UTF-8
  79. Codec ID : S_TEXT/UTF8
  80. Codec ID/Info : UTF-8 Plain Text
  81. Duration : 37 min 55 s
  82. Bit rate : 93 b/s
  83. Count of elements : 574
  84. Stream size : 26.1 KiB (0%)
  85. Title : Spanish [Full]
  86. Language : Spanish
  87. Default : No
  88. Forced : No

  89. Text #4
  90. ID : 6
  91. Format : UTF-8
  92. Codec ID : S_TEXT/UTF8
  93. Codec ID/Info : UTF-8 Plain Text
  94. Duration : 37 min 55 s
  95. Bit rate : 98 b/s
  96. Count of elements : 588
  97. Stream size : 27.4 KiB (0%)
  98. Title : French [Full]
  99. Language : French
  100. Default : No
  101. Forced : No

  102. Text #5
  103. ID : 7
  104. Format : UTF-8
  105. Codec ID : S_TEXT/UTF8
  106. Codec ID/Info : UTF-8 Plain Text
  107. Duration : 37 min 55 s
  108. Bit rate : 90 b/s
  109. Count of elements : 602
  110. Stream size : 25.2 KiB (0%)
  111. Title : German [Full]
  112. Language : German
  113. Default : No
  114. Forced : No

  115. Text #6
  116. ID : 8
  117. Format : UTF-8
  118. Codec ID : S_TEXT/UTF8
  119. Codec ID/Info : UTF-8 Plain Text
  120. Duration : 37 min 55 s
  121. Bit rate : 93 b/s
  122. Count of elements : 595
  123. Stream size : 25.8 KiB (0%)
  124. Title : Italian [Full]
  125. Language : Italian
  126. Default : No
  127. Forced : No

  128. Text #7
  129. ID : 9
  130. Format : UTF-8
  131. Codec ID : S_TEXT/UTF8
  132. Codec ID/Info : UTF-8 Plain Text
  133. Duration : 37 min 55 s
  134. Bit rate : 89 b/s
  135. Count of elements : 560
  136. Stream size : 24.7 KiB (0%)
  137. Title : Portuguese [Full]
  138. Language : Portuguese
  139. Default : No
  140. Forced : No

  141. Text #8
  142. ID : 10
  143. Format : UTF-8
  144. Codec ID : S_TEXT/UTF8
  145. Codec ID/Info : UTF-8 Plain Text
  146. Duration : 37 min 55 s
  147. Bit rate : 91 b/s
  148. Count of elements : 598
  149. Stream size : 25.3 KiB (0%)
  150. Title : Brazilian Portuguese [Full]
  151. Language : Portuguese
  152. Default : No
  153. Forced : No

  154. Text #9
  155. ID : 11
  156. Format : UTF-8
  157. Codec ID : S_TEXT/UTF8
  158. Codec ID/Info : UTF-8 Plain Text
  159. Duration : 37 min 55 s
  160. Bit rate : 79 b/s
  161. Count of elements : 491
  162. Stream size : 22.1 KiB (0%)
  163. Title : Polish [Full]
  164. Language : Polish
  165. Default : No
  166. Forced : No

  167. Text #10
  168. ID : 12
  169. Format : UTF-8
  170. Codec ID : S_TEXT/UTF8
  171. Codec ID/Info : UTF-8 Plain Text
  172. Duration : 37 min 55 s
  173. Bit rate : 88 b/s
  174. Count of elements : 594
  175. Stream size : 24.7 KiB (0%)
  176. Title : Swedish [Full]
  177. Language : Swedish
  178. Default : No
  179. Forced : No

  180. Text #11
  181. ID : 13
  182. Format : UTF-8
  183. Codec ID : S_TEXT/UTF8
  184. Codec ID/Info : UTF-8 Plain Text
  185. Duration : 37 min 55 s
  186. Bit rate : 85 b/s
  187. Count of elements : 580
  188. Stream size : 23.8 KiB (0%)
  189. Title : Danish [Full]
  190. Language : Danish
  191. Default : No
  192. Forced : No

  193. Text #12
  194. ID : 14
  195. Format : UTF-8
  196. Codec ID : S_TEXT/UTF8
  197. Codec ID/Info : UTF-8 Plain Text
  198. Duration : 37 min 55 s
  199. Bit rate : 79 b/s
  200. Count of elements : 597
  201. Stream size : 22.2 KiB (0%)
  202. Title : Finnish [Full]
  203. Language : Finnish
  204. Default : No
  205. Forced : No

  206. Text #13
  207. ID : 15
  208. Format : UTF-8
  209. Codec ID : S_TEXT/UTF8
  210. Codec ID/Info : UTF-8 Plain Text
  211. Duration : 37 min 55 s
  212. Bit rate : 74 b/s
  213. Count of elements : 450
  214. Stream size : 20.8 KiB (0%)
  215. Title : Dutch [Full]
  216. Language : Dutch
  217. Default : No
  218. Forced : No

  219. Text #14
  220. ID : 16
  221. Format : UTF-8
  222. Codec ID : S_TEXT/UTF8
  223. Codec ID/Info : UTF-8 Plain Text
  224. Duration : 37 min 55 s
  225. Bit rate : 80 b/s
  226. Count of elements : 585
  227. Stream size : 22.3 KiB (0%)
  228. Title : Norwegian [Full]
  229. Language : Norwegian
  230. Default : No
  231. Forced : No
复制代码

Rogue.Trip.S01.2160p.DSNP.WEBRip.x265.10bit.HDR.DDP5.1-4k纪录片美剧下载

Rogue.Trip.S01.2160p.DSNP.WEBRip.x265.10bit.HDR.DDP5.1【24.76 GB】
Rogue.Trip.S01.2160p.DSNP.WEBRip.x265.10bit.HDR.DDP5.1-ASCENDANCE[rartv].torrent
(62.84 KB)
回复

使用道具 举报

发烧友评论4

倒序浏览
along1983 发表于 2020-9-16 14:00:51 | 显示全部楼层
哪位有字幕
回复 支持 反对

使用道具 举报

r31325 发表于 2020-7-26 12:00:58 | 显示全部楼层
确实,感谢免费的分享
回复 支持 反对

使用道具 举报

18520199909 发表于 2020-7-25 13:04:51 Hao4K手机版 | 显示全部楼层
感谢免k分享
回复 支持 反对

使用道具 举报

您需要登录后才可以回帖 登录 | 立即注册

本版积分规则

在线客服

在线客服

服务时间 9:00—18:00

返回顶部

关注微信公众号第一时间推送精彩

官方微信

手机访问

Hao4K影音

专注4k家庭影音,提供家庭影音社区,家庭影音器材库,影音问答平台,影音商城,服务千万家庭影音用户。

本站内容部分由用户自主分享和转载自互联网,转载目的在于传递更多信息,并不代表本网赞同其观点和对其真实性负责。

如有侵权、违反国家法律政策行为,请联系我们,我们会第一时间及时清除和处理!

举报反馈邮箱:admin@hao4k.cn

Copyright  2019-2020  Hao4K影音粤公网安备 44030302001429号    ( 粤ICP备18155646号-1 )|网站地图