专注4K家庭影音, 服务千万家庭影音发烧友!

漂亮男孩4K.Beautiful.Boy.2018.HDR.2160p.WEB.h265.4K电影下载

大红色 发表于 2020-7-30 10:50:14 | 显示全部楼层
电影频道
电影封面:
片  名: 漂亮男孩4K
电影分类: 剧情 
国  家: 美国 
年  代: 2018年
分 辨 率: 4K(3840x2160)
电影格式: MKV|REMUX 
画质标准: HDR 
音质编码: Dolby Digital Plus Audio 
电影声道: 5.1声道 
帧数/FPS: 23.976 FPS
电影语言: 英文原版 
资源大小: 12.74 GB
导  演: 菲力斯·范·古宁根
豆瓣评分: 6.3 分
中文字幕: /thread-48702-1-1.html
剧情简介: 艾米·莱安加盟亚马逊新片[漂亮男孩]。该片将由菲力斯·范·古宁根([破碎之家])执导,他将同[雄狮]的编剧卢克·戴维斯一同撰写剧本。电影讲述由史蒂夫·卡瑞尔饰演的父亲,帮助儿子戒除药物上瘾的历程。艾米将在电影中扮演史蒂夫的前妻,蒂莫西·柴勒梅德有望出演该片中的“漂亮男孩”。
漂亮男孩/美丽男孩(台) 4K.Beautiful.Boy.2018.HDR.2160p.WEB.h265电影信息
  1. Video
  2. ID : 28
  3. Format : HEVC
  4. Format/Info : High Efficiency Video Coding
  5. Format profile : Main 10@L5@Main
  6. HDR format : SMPTE ST 2094 App 4, Version 0
  7. Codec ID : V_MPEGH/ISO/HEVC
  8. Duration : 2 h 0 min
  9. Bit rate : 14.5 Mb/s
  10. Width : 3 840 pixels
  11. Height : 2 080 pixels
  12. Display aspect ratio : 1.85:1
  13. Frame rate mode : Constant
  14. Frame rate : 23.976 (24000/1001) FPS
  15. Standard : NTSC
  16. Color space : YUV
  17. Chroma subsampling : 4:2:0 (Type 2)
  18. Bit depth : 10 bits
  19. Bits/(Pixel*Frame) : 0.076
  20. Stream size : 12.2 GiB (96%)
  21. Default : Yes
  22. Forced : No
  23. Color range : Limited
  24. Color primaries : BT.2020
  25. Transfer characteristics : PQ
  26. Matrix coefficients : BT.2020 non-constant
  27. Mastering display color primaries : Display P3
  28. Mastering display luminance : min: 0.0001 cd/m2, max: 1000 cd/m2
  29. Maximum Content Light Level : 1000 cd/m2
  30. Maximum Frame-Average Light Level : 587 cd/m2

  31. Audio
  32. ID : 1
  33. Format : E-AC-3
  34. Format/Info : Enhanced AC-3
  35. Commercial name : Dolby Digital Plus
  36. Codec ID : A_EAC3
  37. Duration : 2 h 0 min
  38. Bit rate mode : Constant
  39. Bit rate : 640 kb/s
  40. Channel(s) : 6 channels
  41. Channel layout : L R C LFE Ls Rs
  42. Sampling rate : 48.0 kHz
  43. Frame rate : 31.250 FPS (1536 SPF)
  44. Compression mode : Lossy
  45. Stream size : 550 MiB (4%)
  46. Title : English
  47. Language : English
  48. Service kind : Complete Main
  49. Default : Yes
  50. Forced : No

  51. Text #1
  52. ID : 2
  53. Format : UTF-8
  54. Codec ID : S_TEXT/UTF8
  55. Codec ID/Info : UTF-8 Plain Text
  56. Duration : 1 h 59 min
  57. Bit rate : 59 b/s
  58. Count of elements : 1960
  59. Stream size : 51.9 KiB (0%)
  60. Title : English [SDH]
  61. Language : English
  62. Default : No
  63. Forced : No

  64. Text #2
  65. ID : 3
  66. Format : UTF-8
  67. Codec ID : S_TEXT/UTF8
  68. Codec ID/Info : UTF-8 Plain Text
  69. Duration : 1 h 59 min
  70. Bit rate : 40 b/s
  71. Count of elements : 1092
  72. Stream size : 35.6 KiB (0%)
  73. Title : Castilian [Full]
  74. Language : Spanish
  75. Default : No
  76. Forced : No

  77. Text #3
  78. ID : 4
  79. Format : UTF-8
  80. Codec ID : S_TEXT/UTF8
  81. Codec ID/Info : UTF-8 Plain Text
  82. Duration : 1 h 49 min
  83. Bit rate : 44 b/s
  84. Count of elements : 1263
  85. Stream size : 35.8 KiB (0%)
  86. Title : Spanish [Full]
  87. Language : Spanish
  88. Default : No
  89. Forced : No

  90. Text #4
  91. ID : 5
  92. Format : UTF-8
  93. Codec ID : S_TEXT/UTF8
  94. Codec ID/Info : UTF-8 Plain Text
  95. Duration : 1 h 59 min
  96. Bit rate : 46 b/s
  97. Count of elements : 1346
  98. Stream size : 40.6 KiB (0%)
  99. Title : French (Canada) [Full]
  100. Language : French
  101. Default : No
  102. Forced : No

  103. Text #5
  104. ID : 6
  105. Format : UTF-8
  106. Codec ID : S_TEXT/UTF8
  107. Codec ID/Info : UTF-8 Plain Text
  108. Duration : 1 h 49 min
  109. Bit rate : 33 b/s
  110. Count of elements : 949
  111. Stream size : 26.9 KiB (0%)
  112. Title : Italian [Full]
  113. Language : Italian
  114. Default : No
  115. Forced : No

  116. Text #6
  117. ID : 7
  118. Format : UTF-8
  119. Codec ID : S_TEXT/UTF8
  120. Codec ID/Info : UTF-8 Plain Text
  121. Duration : 1 h 59 min
  122. Bit rate : 38 b/s
  123. Count of elements : 1087
  124. Stream size : 33.6 KiB (0%)
  125. Title : Portuguese [Full]
  126. Language : Portuguese
  127. Default : No
  128. Forced : No

  129. Text #7
  130. ID : 8
  131. Format : UTF-8
  132. Codec ID : S_TEXT/UTF8
  133. Codec ID/Info : UTF-8 Plain Text
  134. Duration : 1 h 59 min
  135. Bit rate : 41 b/s
  136. Count of elements : 1129
  137. Stream size : 36.7 KiB (0%)
  138. Title : Brazilian Portuguese [Full]
  139. Language : Portuguese
  140. Default : No
  141. Forced : No

  142. Text #8
  143. ID : 9
  144. Format : UTF-8
  145. Codec ID : S_TEXT/UTF8
  146. Codec ID/Info : UTF-8 Plain Text
  147. Duration : 1 h 51 min
  148. Bit rate : 30 b/s
  149. Count of elements : 858
  150. Stream size : 25.1 KiB (0%)
  151. Title : Polish [Full]
  152. Language : Polish
  153. Default : No
  154. Forced : No

  155. Text #9
  156. ID : 10
  157. Format : UTF-8
  158. Codec ID : S_TEXT/UTF8
  159. Codec ID/Info : UTF-8 Plain Text
  160. Duration : 1 h 49 min
  161. Bit rate : 43 b/s
  162. Count of elements : 977
  163. Stream size : 34.9 KiB (0%)
  164. Title : Turkish [Full]
  165. Language : Turkish
  166. Default : No
  167. Forced : No

  168. Text #10
  169. ID : 11
  170. Format : UTF-8
  171. Codec ID : S_TEXT/UTF8
  172. Codec ID/Info : UTF-8 Plain Text
  173. Duration : 1 h 59 min
  174. Bit rate : 34 b/s
  175. Count of elements : 754
  176. Stream size : 30.0 KiB (0%)
  177. Title : Swedish [Full]
  178. Language : Swedish
  179. Default : No
  180. Forced : No

  181. Text #11
  182. ID : 12
  183. Format : UTF-8
  184. Codec ID : S_TEXT/UTF8
  185. Codec ID/Info : UTF-8 Plain Text
  186. Duration : 1 h 59 min
  187. Bit rate : 31 b/s
  188. Count of elements : 754
  189. Stream size : 27.6 KiB (0%)
  190. Title : Danish [Full]
  191. Language : Danish
  192. Default : No
  193. Forced : No

  194. Text #12
  195. ID : 13
  196. Format : UTF-8
  197. Codec ID : S_TEXT/UTF8
  198. Codec ID/Info : UTF-8 Plain Text
  199. Duration : 1 h 59 min
  200. Bit rate : 40 b/s
  201. Count of elements : 1126
  202. Stream size : 35.1 KiB (0%)
  203. Title : Finnish [Full]
  204. Language : Finnish
  205. Default : No
  206. Forced : No

  207. Text #13
  208. ID : 14
  209. Format : UTF-8
  210. Codec ID : S_TEXT/UTF8
  211. Codec ID/Info : UTF-8 Plain Text
  212. Duration : 1 h 59 min
  213. Bit rate : 34 b/s
  214. Count of elements : 814
  215. Stream size : 30.2 KiB (0%)
  216. Title : Dutch [Full]
  217. Language : Dutch
  218. Default : No
  219. Forced : No

  220. Text #14
  221. ID : 15
  222. Format : UTF-8
  223. Codec ID : S_TEXT/UTF8
  224. Codec ID/Info : UTF-8 Plain Text
  225. Duration : 1 h 59 min
  226. Bit rate : 29 b/s
  227. Count of elements : 754
  228. Stream size : 26.2 KiB (0%)
  229. Title : Norwegian (Bokmål) [Full]
  230. Language : Norwegian Bokmal
  231. Default : No
  232. Forced : No

  233. Text #15
  234. ID : 16
  235. Format : UTF-8
  236. Codec ID : S_TEXT/UTF8
  237. Codec ID/Info : UTF-8 Plain Text
  238. Duration : 1 h 59 min
  239. Bit rate : 69 b/s
  240. Count of elements : 1365
  241. Stream size : 60.6 KiB (0%)
  242. Title : Russian [Full]
  243. Language : Russian
  244. Default : No
  245. Forced : No

  246. Text #16
  247. ID : 17
  248. Format : UTF-8
  249. Codec ID : S_TEXT/UTF8
  250. Codec ID/Info : UTF-8 Plain Text
  251. Duration : 1 h 49 min
  252. Bit rate : 67 b/s
  253. Count of elements : 889
  254. Stream size : 54.5 KiB (0%)
  255. Title : Hebrew [Full]
  256. Language : Hebrew
  257. Default : No
  258. Forced : No

  259. Text #17
  260. ID : 18
  261. Format : UTF-8
  262. Codec ID : S_TEXT/UTF8
  263. Codec ID/Info : UTF-8 Plain Text
  264. Duration : 1 h 49 min
  265. Bit rate : 64 b/s
  266. Count of elements : 883
  267. Stream size : 51.9 KiB (0%)
  268. Title : Arabic [Full]
  269. Language : Arabic
  270. Default : No
  271. Forced : No

  272. Text #18
  273. ID : 19
  274. Format : UTF-8
  275. Codec ID : S_TEXT/UTF8
  276. Codec ID/Info : UTF-8 Plain Text
  277. Duration : 1 h 59 min
  278. Bit rate : 108 b/s
  279. Count of elements : 1370
  280. Stream size : 94.8 KiB (0%)
  281. Title : Hindi [Full]
  282. Language : Hindi
  283. Default : No
  284. Forced : No

  285. Text #19
  286. ID : 20
  287. Format : UTF-8
  288. Codec ID : S_TEXT/UTF8
  289. Codec ID/Info : UTF-8 Plain Text
  290. Duration : 1 h 59 min
  291. Bit rate : 136 b/s
  292. Count of elements : 1361
  293. Stream size : 119 KiB (0%)
  294. Title : Tamil [Full]
  295. Language : Tamil
  296. Default : No
  297. Forced : No

  298. Text #20
  299. ID : 21
  300. Format : UTF-8
  301. Codec ID : S_TEXT/UTF8
  302. Codec ID/Info : UTF-8 Plain Text
  303. Duration : 1 h 59 min
  304. Bit rate : 126 b/s
  305. Count of elements : 1370
  306. Stream size : 111 KiB (0%)
  307. Title : Telugu [Full]
  308. Language : Telugu
  309. Default : No
  310. Forced : No

  311. Text #21
  312. ID : 22
  313. Format : UTF-8
  314. Codec ID : S_TEXT/UTF8
  315. Codec ID/Info : UTF-8 Plain Text
  316. Duration : 1 h 59 min
  317. Bit rate : 43 b/s
  318. Count of elements : 1363
  319. Stream size : 38.2 KiB (0%)
  320. Title : Indonesian [Full]
  321. Language : Indonesian
  322. Default : No
  323. Forced : No

  324. Text #22
  325. ID : 23
  326. Format : UTF-8
  327. Codec ID : S_TEXT/UTF8
  328. Codec ID/Info : UTF-8 Plain Text
  329. Duration : 1 h 59 min
  330. Bit rate : 100 b/s
  331. Count of elements : 1360
  332. Stream size : 88.2 KiB (0%)
  333. Title : Thai [Full]
  334. Language : Thai
  335. Default : No
  336. Forced : No

  337. Text #23
  338. ID : 24
  339. Format : UTF-8
  340. Codec ID : S_TEXT/UTF8
  341. Codec ID/Info : UTF-8 Plain Text
  342. Duration : 1 h 59 min
  343. Bit rate : 45 b/s
  344. Count of elements : 1359
  345. Stream size : 39.5 KiB (0%)
  346. Title : Korean [Full]
  347. Language : Korean
  348. Default : No
  349. Forced : No

  350. Text #24
  351. ID : 25
  352. Format : UTF-8
  353. Codec ID : S_TEXT/UTF8
  354. Codec ID/Info : UTF-8 Plain Text
  355. Duration : 1 h 59 min
  356. Bit rate : 37 b/s
  357. Count of elements : 1370
  358. Stream size : 32.7 KiB (0%)
  359. Title : Chinese (Simplified) [Full]
  360. Language : Chinese
  361. Default : No
  362. Forced : No

  363. Text #25
  364. ID : 26
  365. Format : UTF-8
  366. Codec ID : S_TEXT/UTF8
  367. Codec ID/Info : UTF-8 Plain Text
  368. Duration : 1 h 49 min
  369. Bit rate : 32 b/s
  370. Count of elements : 1051
  371. Stream size : 25.8 KiB (0%)
  372. Title : Chinese (Traditional) [Full]
  373. Language : Chinese
  374. Default : No
  375. Forced : No

  376. Text #26
  377. ID : 27
  378. Format : UTF-8
  379. Codec ID : S_TEXT/UTF8
  380. Codec ID/Info : UTF-8 Plain Text
  381. Duration : 1 h 59 min
  382. Bit rate : 35 b/s
  383. Count of elements : 1101
  384. Stream size : 31.4 KiB (0%)
  385. Title : Japanese [Full]
  386. Language : Japanese
  387. Default : No
  388. Forced : No
复制代码

漂亮男孩/美丽男孩(台) 4K.Beautiful.Boy.2018.HDR.2160p.WEB.h265.4k电影下载
漂亮男孩4K.Beautiful.Boy.2018.HDR.2160p.WEB.h265【12.74 GB】
[Hao4K]漂亮男孩4K.Beautiful.Boy.2018.HDR.2160p.WEB.h265-WATCHER.torrent
(64.28 KB)
回复

使用道具 举报

发烧友评论10

倒序浏览
yblu1996 发表于 2020-8-3 21:35:30 Hao4K手机版 | 显示全部楼层
这个片子的主题很小众,可以看看
回复 支持 反对

使用道具 举报

yblu1996 发表于 2020-8-2 08:37:41 Hao4K手机版 | 显示全部楼层
4K.Beautiful.Boy.2018.HDR.2160p.WEB.h265.4K
回复 支持 反对

使用道具 举报

panbell 发表于 2020-7-31 10:25:06 | 显示全部楼层
感谢楼主热心分享
回复 支持 反对

使用道具 举报

Zzy_123 发表于 2020-7-30 21:17:59 | 显示全部楼层
不知道这个好不好看,下了试试,感谢hao4k平台
回复 支持 反对

使用道具 举报

Mathk 发表于 2020-7-30 11:25:28 | 显示全部楼层
thanks a lots ................................. !!!
回复 支持 反对

使用道具 举报

您需要登录后才可以回帖 登录 | 立即注册

本版积分规则

在线客服

在线客服

服务时间 9:00—18:00

返回顶部

关注微信公众号第一时间推送精彩

官方微信

手机访问

Hao4K影音

专注4k家庭影音,提供家庭影音社区,家庭影音器材库,影音问答平台,影音商城,服务千万家庭影音用户。

本站内容部分由用户自主分享和转载自互联网,转载目的在于传递更多信息,并不代表本网赞同其观点和对其真实性负责。

如有侵权、违反国家法律政策行为,请联系我们,我们会第一时间及时清除和处理!

举报反馈邮箱:admin@hao4k.cn

Copyright  2019-2020  Hao4K影音粤公网安备 44030302001429号    ( 粤ICP备18155646号-1 )|网站地图