专注4K家庭影音, 服务千万家庭影音发烧友!

[美剧] 缘起泽尔达4k Z.the.Beginning.of.Everything.S01.2160p.AMZN.WEB-DL.x265.10bit.HDR.DDP5.1-4k美剧下载

大红色 发表于 2020-8-2 20:36:43 | 显示全部楼层
Zelda/缘起泽尔达4k Z.the.Beginning.of.Everything.S01.2160p.AMZN.WEB-DL.x265.10bit.HDR.DDP5.1-4k美剧信息
  1. Video
  2. ID : 1
  3. Format : HEVC
  4. Format/Info : High Efficiency Video Coding
  5. Format profile : Main 10@L5@Main
  6. HDR format : SMPTE ST 2094 App 4, Version 0
  7. Codec ID : V_MPEGH/ISO/HEVC
  8. Duration : 29 min 24 s
  9. Bit rate : 14.2 Mb/s
  10. Width : 3 840 pixels
  11. Height : 2 160 pixels
  12. Display aspect ratio : 16:9
  13. Frame rate mode : Constant
  14. Frame rate : 23.976 (24000/1001) FPS
  15. Standard : NTSC
  16. Color space : YUV
  17. Chroma subsampling : 4:2:0 (Type 2)
  18. Bit depth : 10 bits
  19. Bits/(Pixel*Frame) : 0.071
  20. Stream size : 2.91 GiB (96%)
  21. Default : Yes
  22. Forced : No
  23. Color range : Limited
  24. Color primaries : BT.2020
  25. Transfer characteristics : PQ
  26. Matrix coefficients : BT.2020 non-constant
  27. Mastering display color primaries : Display P3
  28. Mastering display luminance : min: 0.0001 cd/m2, max: 1000 cd/m2
  29. Maximum Content Light Level : 998 cd/m2
  30. Maximum Frame-Average Light Level : 451 cd/m2

  31. Audio
  32. ID : 2
  33. Format : E-AC-3
  34. Format/Info : Enhanced AC-3
  35. Commercial name : Dolby Digital Plus
  36. Codec ID : A_EAC3
  37. Duration : 29 min 24 s
  38. Bit rate mode : Constant
  39. Bit rate : 640 kb/s
  40. Channel(s) : 6 channels
  41. Channel layout : L R C LFE Ls Rs
  42. Sampling rate : 48.0 kHz
  43. Frame rate : 31.250 FPS (1536 SPF)
  44. Compression mode : Lossy
  45. Stream size : 135 MiB (4%)
  46. Title : English
  47. Language : English
  48. Service kind : Complete Main
  49. Default : Yes
  50. Forced : No

  51. Menu
  52. 00:00:00.000 : en:Amazon Studios
  53. 00:00:05.000 : en:Title Sequence
  54. 00:00:28.000 : en:Zelda and Scott pull up to their new home
  55. 00:02:21.000 : en:Nobody\'s got a right to live but us
  56. 00:03:13.000 : en:Zelda sets about making a home for her and Scott
  57. 00:06:02.000 : en:Zelda calls up her sister
  58. 00:07:58.000 : en:Zelda misses the big city
  59. 00:10:04.000 : en:There\'s more than just a grease fire burning
  60. 00:11:10.000 : en:Everybody needs a little help
  61. 00:13:40.000 : en:Zelda finds herself increasingly useless
  62. 00:15:48.000 : en:Zelda invites the neighbor over for afternoon tea
  63. 00:16:56.000 : en:Zelda lashes out at Scott
  64. 00:20:00.000 : en:Let\'s get this party started
  65. 00:21:01.000 : en:Fitzgerald shows Max the progress he\'s made
  66. 00:23:33.000 : en:Zelda looks out onto the water and considers her choices
  67. 00:25:35.000 : en:An inspiration that I can\'t live without
  68. 00:27:38.000 : en:End Credits
复制代码

Zelda/缘起泽尔达4k Z.the.Beginning.of.Everything.S01.2160p.AMZN.WEB-DL.x265.10bit.HDR.DDP5.1-4k美剧下载

缘起泽尔达4k Z.the.Beginning.of.Everything.S01.2160p.AMZN.WEB-DL.x265.10bit.HDR.DDP5.1【28.18】
缘起泽尔达4k Z.the.Beginning.of.Everything.S01.2160p.AMZN.WEB-DL.x265.10bit.HDR..torrent
(71.94 KB)
缘起泽尔达4k.jpg
回复

使用道具 举报

发烧友评论2

倒序浏览
广东广州在路上 发表于 2020-8-9 08:37:26 | 显示全部楼层
封面好漂亮。
回复 支持 反对

使用道具 举报

您需要登录后才可以回帖 登录 | 立即注册

本版积分规则

在线客服

在线客服

服务时间 9:00—18:00

返回顶部

关注微信公众号第一时间推送精彩

官方微信

手机访问

Hao4K影音

专注4k家庭影音,提供家庭影音社区,家庭影音器材库,影音问答平台,影音商城,服务千万家庭影音用户。

本站内容部分由用户自主分享和转载自互联网,转载目的在于传递更多信息,并不代表本网赞同其观点和对其真实性负责。

如有侵权、违反国家法律政策行为,请联系我们,我们会第一时间及时清除和处理!

举报反馈邮箱:admin@hao4k.cn

Copyright  2019-2020  Hao4K影音粤公网安备 44030302001429号    ( 粤ICP备18155646号-1 )|网站地图