专注4K家庭影音, 服务千万家庭影音发烧友!

[美剧] 叉叉问了一个问题4k Forky.Asks.a.Question.S01.HDR.2160p.WEB.h265-4k美剧下载

大红色 发表于 2020-8-2 20:50:30 | 显示全部楼层
叉叉问问题/叉叉问了一个问题4k Forky.Asks.a.Question.S01.HDR.2160p.WEB.h265-4k美剧信息
  1. Video
  2. Video
  3. ID : 1
  4. Format : HEVC
  5. Format/Info : High Efficiency Video Coding
  6. Format profile : Main 10@L5@High
  7. Codec ID : V_MPEGH/ISO/HEVC
  8. Duration : 2 min 44 s
  9. Bit rate : 16.4 Mb/s
  10. Width : 3 840 pixels
  11. Height : 2 160 pixels
  12. Display aspect ratio : 16:9
  13. Frame rate mode : Constant
  14. Frame rate : 23.976 (24000/1001) FPS
  15. Color space : YUV
  16. Chroma subsampling : 4:2:0
  17. Bit depth : 10 bits
  18. Bits/(Pixel*Frame) : 0.082
  19. Stream size : 320 MiB (95%)
  20. Language : English
  21. Default : Yes
  22. Forced : No
  23. Color range : Limited
  24. Color primaries : BT.2020
  25. Transfer characteristics : PQ
  26. Matrix coefficients : BT.2020 non-constant

  27. Audio
  28. ID : 2
  29. Format : E-AC-3 JOC
  30. Format/Info : Enhanced AC-3 with Joint Object Coding
  31. Commercial name : Dolby Digital Plus with Dolby Atmos
  32. Codec ID : A_EAC3
  33. Duration : 2 min 44 s
  34. Bit rate mode : Constant
  35. Bit rate : 768 kb/s
  36. Channel(s) : 6 channels
  37. Channel layout : L R C LFE Ls Rs
  38. Sampling rate : 48.0 kHz
  39. Frame rate : 31.250 FPS (1536 SPF)
  40. Compression mode : Lossy
  41. Stream size : 15.0 MiB (4%)
  42. Language : English
  43. Service kind : Complete Main
  44. Default : Yes
  45. Forced : No
  46. Complexity index : 16
  47. Number of dynamic objects : 15
  48. Bed channel count : 1 channel
  49. Bed channel configuration : LFE

  50. Text #1
  51. ID : 3
  52. Format : UTF-8
  53. Codec ID : S_TEXT/UTF8
  54. Codec ID/Info : UTF-8 Plain Text
  55. Duration : 2 min 39 s
  56. Bit rate : 78 b/s
  57. Count of elements : 58
  58. Stream size : 1.54 KiB (0%)
  59. Title : Dansk
  60. Language : Danish
  61. Default : No
  62. Forced : No

  63. Text #2
  64. ID : 4
  65. Format : UTF-8
  66. Codec ID : S_TEXT/UTF8
  67. Codec ID/Info : UTF-8 Plain Text
  68. Duration : 2 min 43 s
  69. Bit rate : 81 b/s
  70. Count of elements : 57
  71. Stream size : 1.63 KiB (0%)
  72. Title : Deutsch
  73. Language : German
  74. Default : No
  75. Forced : No

  76. Text #3
  77. ID : 5
  78. Format : UTF-8
  79. Codec ID : S_TEXT/UTF8
  80. Codec ID/Info : UTF-8 Plain Text
  81. Duration : 2 min 38 s
  82. Bit rate : 101 b/s
  83. Count of elements : 60
  84. Stream size : 1.97 KiB (0%)
  85. Title : English (SDH)
  86. Language : English
  87. Default : No
  88. Forced : No

  89. Text #4
  90. ID : 6
  91. Format : UTF-8
  92. Codec ID : S_TEXT/UTF8
  93. Codec ID/Info : UTF-8 Plain Text
  94. Duration : 2 min 39 s
  95. Bit rate : 86 b/s
  96. Count of elements : 58
  97. Stream size : 1.69 KiB (0%)
  98. Title : Español
  99. Language : Spanish
  100. Default : No
  101. Forced : No

  102. Text #5
  103. ID : 7
  104. Format : UTF-8
  105. Codec ID : S_TEXT/UTF8
  106. Codec ID/Info : UTF-8 Plain Text
  107. Duration : 2 min 39 s
  108. Bit rate : 81 b/s
  109. Count of elements : 58
  110. Stream size : 1.59 KiB (0%)
  111. Title : Español (Latinoamericano)
  112. Language : Spanish
  113. Default : No
  114. Forced : No

  115. Text #6
  116. ID : 8
  117. Format : UTF-8
  118. Codec ID : S_TEXT/UTF8
  119. Codec ID/Info : UTF-8 Plain Text
  120. Duration : 2 min 39 s
  121. Bit rate : 83 b/s
  122. Count of elements : 58
  123. Stream size : 1.63 KiB (0%)
  124. Title : Suomi
  125. Language : Finnish
  126. Default : No
  127. Forced : No

  128. Text #7
  129. ID : 9
  130. Format : UTF-8
  131. Codec ID : S_TEXT/UTF8
  132. Codec ID/Info : UTF-8 Plain Text
  133. Duration : 2 min 41 s
  134. Bit rate : 78 b/s
  135. Count of elements : 55
  136. Stream size : 1.54 KiB (0%)
  137. Title : Français
  138. Language : French
  139. Default : No
  140. Forced : No

  141. Text #8
  142. ID : 10
  143. Format : UTF-8
  144. Codec ID : S_TEXT/UTF8
  145. Codec ID/Info : UTF-8 Plain Text
  146. Duration : 2 min 39 s
  147. Bit rate : 82 b/s
  148. Count of elements : 58
  149. Stream size : 1.62 KiB (0%)
  150. Title : Italiano
  151. Language : Italian
  152. Default : No
  153. Forced : No

  154. Text #9
  155. ID : 11
  156. Format : UTF-8
  157. Codec ID : S_TEXT/UTF8
  158. Codec ID/Info : UTF-8 Plain Text
  159. Duration : 2 min 39 s
  160. Bit rate : 77 b/s
  161. Count of elements : 55
  162. Stream size : 1.51 KiB (0%)
  163. Title : Nederlands
  164. Language : Dutch
  165. Default : No
  166. Forced : No

  167. Text #10
  168. ID : 12
  169. Format : UTF-8
  170. Codec ID : S_TEXT/UTF8
  171. Codec ID/Info : UTF-8 Plain Text
  172. Duration : 2 min 39 s
  173. Bit rate : 79 b/s
  174. Count of elements : 57
  175. Stream size : 1.56 KiB (0%)
  176. Title : Norsk
  177. Language : Norwegian
  178. Default : No
  179. Forced : No

  180. Text #11
  181. ID : 13
  182. Format : UTF-8
  183. Codec ID : S_TEXT/UTF8
  184. Codec ID/Info : UTF-8 Plain Text
  185. Duration : 2 min 39 s
  186. Bit rate : 84 b/s
  187. Count of elements : 59
  188. Stream size : 1.64 KiB (0%)
  189. Title : Polski
  190. Language : Polish
  191. Default : No
  192. Forced : No

  193. Text #12
  194. ID : 14
  195. Format : UTF-8
  196. Codec ID : S_TEXT/UTF8
  197. Codec ID/Info : UTF-8 Plain Text
  198. Duration : 2 min 39 s
  199. Bit rate : 86 b/s
  200. Count of elements : 58
  201. Stream size : 1.69 KiB (0%)
  202. Title : Português
  203. Language : Portuguese
  204. Default : No
  205. Forced : No

  206. Text #13
  207. ID : 15
  208. Format : UTF-8
  209. Codec ID : S_TEXT/UTF8
  210. Codec ID/Info : UTF-8 Plain Text
  211. Duration : 2 min 39 s
  212. Bit rate : 83 b/s
  213. Count of elements : 58
  214. Stream size : 1.64 KiB (0%)
  215. Title : Português (Brasil)
  216. Language : Portuguese
  217. Default : No
  218. Forced : No

  219. Text #14
  220. ID : 16
  221. Format : UTF-8
  222. Codec ID : S_TEXT/UTF8
  223. Codec ID/Info : UTF-8 Plain Text
  224. Duration : 2 min 39 s
  225. Bit rate : 83 b/s
  226. Count of elements : 58
  227. Stream size : 1.63 KiB (0%)
  228. Title : Svenska
  229. Language : Swedish
  230. Default : No
  231. Forced : No
复制代码

叉叉问问题/叉叉问了一个问题4k Forky.Asks.a.Question.S01.HDR.2160p.WEB.h265-4k美剧下载

叉叉问了一个问题4k Forky.Asks.a.Question.S01.HDR.2160p.WEB.h265【3.76 GB】
叉叉问了一个问题4k Forky.Asks.a.Question.S01.HDR.2160p.WEB.h265-WALT[rartv].torrent
(38.96 KB)
叉叉问了一个问题4k.jpg
回复

使用道具 举报

发烧友评论5

倒序浏览
652070371 发表于 2020-8-3 11:03:24 Hao4K手机版 | 显示全部楼层
请问有字幕吗
回复 支持 反对

使用道具 举报

dyczw 发表于 2020-8-3 07:11:45 | 显示全部楼层
感谢分享,辛苦了
回复 支持 反对

使用道具 举报

g3353 发表于 2020-8-3 00:28:01 | 显示全部楼层
感谢分享,挺好的
回复 支持 反对

使用道具 举报

您需要登录后才可以回帖 登录 | 立即注册

本版积分规则

在线客服

在线客服

服务时间 9:00—18:00

返回顶部

关注微信公众号第一时间推送精彩

官方微信

手机访问

Hao4K影音

专注4k家庭影音,提供家庭影音社区,家庭影音器材库,影音问答平台,影音商城,服务千万家庭影音用户。

本站内容部分由用户自主分享和转载自互联网,转载目的在于传递更多信息,并不代表本网赞同其观点和对其真实性负责。

如有侵权、违反国家法律政策行为,请联系我们,我们会第一时间及时清除和处理!

举报反馈邮箱:admin@hao4k.cn

Copyright  2019-2020  Hao4K影音粤公网安备 44030302001429号    ( 粤ICP备18155646号-1 )|网站地图