专注4K家庭影音, 服务千万家庭影音发烧友!

[美剧] 舍伍德传奇 第一季4k Sherwood.S01.2160p.RED.WEBRip.AAC5.1.VP9-4k美剧下载

大红色 发表于 2020-8-3 09:44:46 | 显示全部楼层
电视剧频道
电视剧封面:
电视剧名: 舍伍德传奇 第一季4k
年  代: 2019  
国  家: 美国
类  别: 动画 
语  言: 英语
字  幕: 英文原版
上映日期: 2019-03-06
文件格式: mkv    
视频效果: 4K(3840x2160)    
资源大小: 18.54 GB
片  长: 22 分钟
导  演: Bruce Carter
剧情简介: 在23世纪,一座被洪水侵袭的城市,隶属于地下反抗组织的少女舍伍德从父亲那里继承了一只高科技手套,这使她意识到,自己的命运要比以前想象的更加任重道远
舍伍德传奇 第一季4k Sherwood.S01.2160p.RED.WEBRip.AAC5.1.VP9-4k美剧信息
  1. Video
  2. ID : 1
  3. Format : VP9
  4. Codec ID : V_VP9
  5. Duration : 22 min 56 s
  6. Bit rate : 11.3 Mb/s
  7. Width : 3 840 pixels
  8. Height : 2 160 pixels
  9. Display aspect ratio : 16:9
  10. Frame rate mode : Constant
  11. Frame rate : 23.976 (24000/1001) FPS
  12. Bits/(Pixel*Frame) : 0.057
  13. Stream size : 1.80 GiB (97%)
  14. Default : Yes
  15. Forced : No

  16. Audio
  17. ID : 2
  18. Format : AAC LC
  19. Format/Info : Advanced Audio Codec Low Complexity
  20. Codec ID : A_AAC-2
  21. Duration : 22 min 56 s
  22. Bit rate : 384 kb/s
  23. Channel(s) : 6 channels
  24. Channel layout : C L R Ls Rs LFE
  25. Sampling rate : 48.0 kHz
  26. Frame rate : 46.875 FPS (1024 SPF)
  27. Compression mode : Lossy
  28. Stream size : 63.4 MiB (3%)
  29. Language : English
  30. Default : Yes
  31. Forced : No

  32. Text #1
  33. ID : 3
  34. Format : UTF-8
  35. Codec ID : S_TEXT/UTF8
  36. Codec ID/Info : UTF-8 Plain Text
  37. Duration : 21 min 37 s
  38. Bit rate : 74 b/s
  39. Count of elements : 396
  40. Stream size : 11.8 KiB (0%)
  41. Language : English
  42. Default : No
  43. Forced : No

  44. Text #2
  45. ID : 4
  46. Format : UTF-8
  47. Codec ID : S_TEXT/UTF8
  48. Codec ID/Info : UTF-8 Plain Text
  49. Duration : 20 min 58 s
  50. Bit rate : 74 b/s
  51. Count of elements : 323
  52. Stream size : 11.5 KiB (0%)
  53. Language : French
  54. Default : No
  55. Forced : No

  56. Text #3
  57. ID : 5
  58. Format : UTF-8
  59. Codec ID : S_TEXT/UTF8
  60. Codec ID/Info : UTF-8 Plain Text
  61. Duration : 20 min 58 s
  62. Bit rate : 72 b/s
  63. Count of elements : 327
  64. Stream size : 11.1 KiB (0%)
  65. Language : German
  66. Default : No
  67. Forced : No

  68. Text #4
  69. ID : 6
  70. Format : UTF-8
  71. Codec ID : S_TEXT/UTF8
  72. Codec ID/Info : UTF-8 Plain Text
  73. Duration : 20 min 57 s
  74. Bit rate : 25 b/s
  75. Count of elements : 324
  76. Stream size : 3.84 KiB (0%)
  77. Language : Japanese
  78. Default : No
  79. Forced : No

  80. Text #5
  81. ID : 7
  82. Format : UTF-8
  83. Codec ID : S_TEXT/UTF8
  84. Codec ID/Info : UTF-8 Plain Text
  85. Duration : 20 min 58 s
  86. Bit rate : 57 b/s
  87. Count of elements : 330
  88. Stream size : 8.89 KiB (0%)
  89. Language : Korean
  90. Default : No
  91. Forced : No

  92. Text #6
  93. ID : 8
  94. Format : UTF-8
  95. Codec ID : S_TEXT/UTF8
  96. Codec ID/Info : UTF-8 Plain Text
  97. Duration : 20 min 58 s
  98. Bit rate : 69 b/s
  99. Count of elements : 329
  100. Stream size : 10.7 KiB (0%)
  101. Language : Portuguese
  102. Default : No
  103. Forced : No

  104. Text #7
  105. ID : 9
  106. Format : UTF-8
  107. Codec ID : S_TEXT/UTF8
  108. Codec ID/Info : UTF-8 Plain Text
  109. Duration : 20 min 58 s
  110. Bit rate : 75 b/s
  111. Count of elements : 330
  112. Stream size : 11.5 KiB (0%)
  113. Language : Russian
  114. Default : No
  115. Forced : No

  116. Text #8
  117. ID : 10
  118. Format : UTF-8
  119. Codec ID : S_TEXT/UTF8
  120. Codec ID/Info : UTF-8 Plain Text
  121. Duration : 20 min 58 s
  122. Bit rate : 72 b/s
  123. Count of elements : 330
  124. Stream size : 11.2 KiB (0%)
  125. Language : Spanish
  126. Default : No
  127. Forced : No
复制代码

舍伍德传奇 第一季4k Sherwood.S01.2160p.RED.WEBRip.AAC5.1.VP9-4k美剧下载

舍伍德传奇 第一季4k Sherwood.S01.2160p.RED.WEBRip.AAC5.1.VP9【18.54 GB】
舍伍德传奇 第一季4k Sherwood.S01.2160p.RED.WEBRip.AAC5.1.VP9-iNSPiRiT[rartv].torrent
(93.89 KB)
回复

使用道具 举报

发烧友评论7

倒序浏览
sofia 发表于 2020-9-15 09:58:01 | 显示全部楼层
恰似妳滴温柔 发表于 2020-8-20 23:33
喜欢看美剧,却从没静下心看过一部完整的美剧

我统计了下,跟你一样,没完整看完过一部美剧。
回复 支持 1 反对 0

使用道具 举报

恰似妳滴温柔 发表于 2020-8-20 23:33:28 | 显示全部楼层
喜欢看美剧,却从没静下心看过一部完整的美剧
回复 支持 反对

使用道具 举报

wangyifan78 发表于 2020-8-17 12:09:53 | 显示全部楼层
有没有字幕啊?
回复 支持 反对

使用道具 举报

wjg72 发表于 2020-8-3 20:41:15 Hao4K手机版 | 显示全部楼层
wjg72 发表于 2020-8-3 20:38
没有种子了,还我钱

错了,发错了。不好意思
回复 支持 反对

使用道具 举报

wjg72 发表于 2020-8-3 20:38:58 Hao4K手机版 | 显示全部楼层
没有种子了,还我钱
回复 支持 反对

使用道具 举报

您需要登录后才可以回帖 登录 | 立即注册

本版积分规则

在线客服

在线客服

服务时间 9:00—18:00

返回顶部

关注微信公众号第一时间推送精彩

官方微信

手机访问

Hao4K影音

专注4k家庭影音,提供家庭影音社区,家庭影音器材库,影音问答平台,影音商城,服务千万家庭影音用户。

本站内容部分由用户自主分享和转载自互联网,转载目的在于传递更多信息,并不代表本网赞同其观点和对其真实性负责。

如有侵权、违反国家法律政策行为,请联系我们,我们会第一时间及时清除和处理!

举报反馈邮箱:admin@hao4k.cn

Copyright  2019-2020  Hao4K影音粤公网安备 44030302001429号    ( 粤ICP备18155646号-1 )|网站地图