专注4K家庭影音, 服务千万家庭影音发烧友!

比尔和泰德历险记4k Bill.and.Teds.Excellent.Adventure.1989.2160p.UHD.BluRay.X265.10bit.HDR.FLAC.2.0-4k电影下载

青衫烟雨 发表于 2020-8-7 21:22:05 | 显示全部楼层
电影频道
电影封面:
片  名: 比尔和泰德历险记4k
电影分类: 科幻 冒险 喜剧 
国  家: 美国 
年  代: 80年代
分 辨 率: 4K(3840x2160)
电影格式: MKV|REMUX 
画质标准: HDR 
音质编码: 其他AAC 
电影声道: 2.0声道 
帧数/FPS: 24 FPS
电影语言: 英文原版 
资源大小: 31.90 GB
导  演: 斯蒂芬·赫瑞克
豆瓣评分: 6.9 分
中文字幕: /thread-48944-1-1.html
剧情简介: 泰德(基努·里维斯 Keanu Reeves 饰)和比尔(亚历克斯·温特 Alex Winter 饰)是就读于同一所高中的同学,两人之间感情十分要好。也许,他们会如此一见如故的原因在于,两人的智商处在同一水平线上,没错,就是那条比别人都低的水平线。更糟糕的是,比尔和泰德在一起只晓得整日游手好闲,丝毫不将心思放在学习上,成绩可想而知。
  历史考试在即,就在这个节骨眼上,泰德和比尔得知了一个惊天噩耗,如果不能通过这次考试,他们就将无法拿到毕业证书,一下子懵了的两人陷入了手足无措之中。就在此时,一位名叫鲁佛斯(乔治·卡林 George Carlin 饰)的天外来客出现在了他们面前,他自称来自未来世界。无论鲁佛斯所言是真是假,泰德和比尔明白,他是他们那道毕业证书的唯一一根救命稻草。
阿比阿弟闯天关(台) / 超时空历险记 / 阿比阿弟的冒险 / 比尔和泰德的奇异冒险/比尔和泰德历险记4k Bill.and.Teds.Excellent.Adventure.1989.2160p.UHD.BluRay.X265.10bit.HDR.FLAC.2.0-4k电影信息
  1. Video
  2. ID : 1
  3. Format : HEVC
  4. Format/Info : High Efficiency Video Coding
  5. Format profile : Main 10@L5.1@High
  6. HDR format : SMPTE ST 2086, HDR10 compatible
  7. Codec ID : V_MPEGH/ISO/HEVC
  8. Duration : 1 h 29 min
  9. Bit rate : 48.4 Mb/s
  10. Width : 3 840 pixels
  11. Height : 1 634 pixels
  12. Display aspect ratio : 2.35:1
  13. Frame rate mode : Constant
  14. Frame rate : 24.000 FPS
  15. Color space : YUV
  16. Chroma subsampling : 4:2:0 (Type 2)
  17. Bit depth : 10 bits
  18. Bits/(Pixel*Frame) : 0.322
  19. Stream size : 30.4 GiB (96%)
  20. Writing library : x265 3.4+1-7b120308dc64:[Windows][MSVC 1900][64 bit] 10bit
  21. Encoding settings : cpuid=1176575 / frame-threads=5 / numa-pools=36 / wpp / no-pmode / no-pme / no-psnr / no-ssim / log-level=2 / input-csp=1 / input-res=3840x1634 / interlace=0 / total-frames=129356 / level-idc=51 / high-tier=1 / uhd-bd=0 / ref=4 / no-allow-non-conformance / repeat-headers / annexb / aud / hrd / info / hash=0 / no-temporal-layers / no-open-gop / min-keyint=24 / keyint=250 / gop-lookahead=0 / bframes=4 / b-adapt=2 / b-pyramid / bframe-bias=0 / rc-lookahead=25 / lookahead-slices=4 / scenecut=40 / hist-scenecut=0 / radl=0 / no-splice / no-intra-refresh / ctu=64 / min-cu-size=8 / rect / no-amp / max-tu-size=32 / tu-inter-depth=1 / tu-intra-depth=1 / limit-tu=0 / rdoq-level=2 / dynamic-rd=0.00 / no-ssim-rd / signhide / no-tskip / nr-intra=0 / nr-inter=0 / no-constrained-intra / no-strong-intra-smoothing / max-merge=3 / limit-refs=3 / limit-modes / me=3 / subme=3 / merange=57 / temporal-mvp / no-frame-dup / no-hme / weightp / no-weightb / no-analyze-src-pics / deblock=-3:-3 / no-sao / no-sao-non-deblock / rd=4 / selective-sao=0 / no-early-skip / rskip / no-fast-intra / no-tskip-fast / no-cu-lossless / no-b-intra / no-splitrd-skip / rdpenalty=0 / psy-rd=2.00 / psy-rdoq=1.00 / no-rd-refine / no-lossless / cbqpoffs=0 / crqpoffs=0 / rc=crf / crf=17.0 / qcomp=0.60 / qpstep=4 / stats-write=0 / stats-read=0 / vbv-maxrate=160000 / vbv-bufsize=160000 / vbv-init=0.9 / crf-max=0.0 / crf-min=0.0 / ipratio=1.40 / pbratio=1.30 / aq-mode=2 / aq-strength=0.70 / cutree / zone-count=0 / no-strict-cbr / qg-size=32 / no-rc-grain / qpmax=69 / qpmin=0 / no-const-vbv / sar=1 / overscan=0 / videoformat=5 / range=0 / colorprim=9 / transfer=16 / colormatrix=9 / chromaloc=1 / chromaloc-top=2 / chromaloc-bottom=2 / display-window=0 / master-display=G(8500,39850)B(6550,2300)R(35400,14600)WP(15635,16450)L(10000000,1) / cll=0,0 / min-luma=0 / max-luma=1023 / log2-max-poc-lsb=8 / vui-timing-info / vui-hrd-info / slices=1 / no-opt-qp-pps / no-opt-ref-list-length-pps / no-multi-pass-opt-rps / scenecut-bias=0.05 / hist-threshold=0.01 / no-opt-cu-delta-qp / no-aq-motion / hdr10 / hdr10-opt / no-dhdr10-opt / no-idr-recovery-sei / analysis-reuse-level=0 / analysis-save-reuse-level=0 / analysis-load-reuse-level=0 / scale-factor=0 / refine-intra=0 / refine-inter=0 / refine-mv=1 / refine-ctu-distortion=0 / no-limit-sao / ctu-info=0 / no-lowpass-dct / refine-analysis-type=0 / copy-pic=1 / max-ausize-factor=1.0 / no-dynamic-refine / no-single-sei / no-hevc-aq / no-svt / no-field / qp-adaptation-range=1.00 / no-scenecut-aware-qpconformance-window-offsets / right=0 / bottom=0 / decoder-max-rate=0
  22. Default : Yes
  23. Forced : No
  24. Color range : Limited
  25. Color primaries : BT.2020
  26. Transfer characteristics : PQ
  27. Matrix coefficients : BT.2020 non-constant
  28. Mastering display color primaries : BT.2020
  29. Mastering display luminance : min: 0.0001 cd/m2, max: 1000 cd/m2

  30. Audio #1
  31. ID : 2
  32. Format : FLAC
  33. Format/Info : Free Lossless Audio Codec
  34. Codec ID : A_FLAC
  35. Duration : 1 h 29 min
  36. Bit rate mode : Variable
  37. Bit rate : 1 451 kb/s
  38. Channel(s) : 2 channels
  39. Channel layout : L R
  40. Sampling rate : 48.0 kHz
  41. Frame rate : 11.719 FPS (4096 SPF)
  42. Bit depth : 24 bits
  43. Compression mode : Lossless
  44. Stream size : 933 MiB (3%)
  45. Title : Flac 2.0
  46. Writing library : libFLAC 1.2.1 (UTC 2007-09-17)
  47. Language : English
  48. Default : Yes
  49. Forced : No

  50. Audio #2
  51. ID : 3
  52. Format : AAC LC
  53. Format/Info : Advanced Audio Codec Low Complexity
  54. Codec ID : A_AAC-2
  55. Duration : 1 h 29 min
  56. Bit rate : 114 kb/s
  57. Channel(s) : 2 channels
  58. Channel layout : L R
  59. Sampling rate : 48.0 kHz
  60. Frame rate : 46.875 FPS (1024 SPF)
  61. Compression mode : Lossy
  62. Delay relative to video : 9 ms
  63. Stream size : 73.3 MiB (0%)
  64. Title : Commentary with actor Alex Winter and producer Scott Kroopf
  65. Language : English
  66. Default : No
  67. Forced : No

  68. Audio #3
  69. ID : 4
  70. Format : AAC LC
  71. Format/Info : Advanced Audio Codec Low Complexity
  72. Codec ID : A_AAC-2
  73. Duration : 1 h 29 min
  74. Bit rate : 117 kb/s
  75. Channel(s) : 2 channels
  76. Channel layout : L R
  77. Sampling rate : 48.0 kHz
  78. Frame rate : 46.875 FPS (1024 SPF)
  79. Compression mode : Lossy
  80. Delay relative to video : 9 ms
  81. Stream size : 75.5 MiB (0%)
  82. Title : Commentary with writers Chris Matheson and Ed Solomon
  83. Language : English
  84. Default : No
  85. Forced : No

  86. Text #1
  87. ID : 5
  88. Format : UTF-8
  89. Codec ID : S_TEXT/UTF8
  90. Codec ID/Info : UTF-8 Plain Text
  91. Duration : 32 min 46 s
  92. Bit rate : 1 b/s
  93. Count of elements : 18
  94. Stream size : 486 Bytes (0%)
  95. Title : Forced SRT
  96. Language : English
  97. Default : Yes
  98. Forced : Yes

  99. Text #2
  100. ID : 6
  101. Format : UTF-8
  102. Codec ID : S_TEXT/UTF8
  103. Codec ID/Info : UTF-8 Plain Text
  104. Duration : 1 h 23 min
  105. Bit rate : 47 b/s
  106. Count of elements : 981
  107. Stream size : 29.3 KiB (0%)
  108. Title : Stripped SRT
  109. Language : English
  110. Default : No
  111. Forced : No

  112. Text #3
  113. ID : 7
  114. Format : UTF-8
  115. Codec ID : S_TEXT/UTF8
  116. Codec ID/Info : UTF-8 Plain Text
  117. Duration : 1 h 25 min
  118. Bit rate : 52 b/s
  119. Count of elements : 1159
  120. Stream size : 33.0 KiB (0%)
  121. Title : SDH SRT
  122. Language : English
  123. Default : No
  124. Forced : No

  125. Text #4
  126. ID : 8
  127. Format : PGS
  128. Muxing mode : zlib
  129. Codec ID : S_HDMV/PGS
  130. Codec ID/Info : Picture based subtitle format used on BDs/HD-DVDs
  131. Duration : 32 min 46 s
  132. Bit rate : 1 745 b/s
  133. Count of elements : 27
  134. Stream size : 419 KiB (0%)
  135. Title : Forced
  136. Language : English
  137. Default : No
  138. Forced : No

  139. Text #5
  140. ID : 9
  141. Format : PGS
  142. Muxing mode : zlib
  143. Codec ID : S_HDMV/PGS
  144. Codec ID/Info : Picture based subtitle format used on BDs/HD-DVDs
  145. Duration : 1 h 25 min
  146. Bit rate : 33.8 kb/s
  147. Count of elements : 2309
  148. Stream size : 20.7 MiB (0%)
  149. Title : SDH
  150. Language : English
  151. Default : No
  152. Forced : No

  153. Text #6
  154. ID : 10
  155. Format : PGS
  156. Muxing mode : zlib
  157. Codec ID : S_HDMV/PGS
  158. Codec ID/Info : Picture based subtitle format used on BDs/HD-DVDs
  159. Duration : 1 h 29 min
  160. Bit rate : 68.0 kb/s
  161. Count of elements : 2578
  162. Stream size : 43.4 MiB (0%)
  163. Title : Commentary with actor Alex Winter and producer Scott Kroopf
  164. Language : English
  165. Default : No
  166. Forced : No

  167. Text #7
  168. ID : 11
  169. Format : PGS
  170. Muxing mode : zlib
  171. Codec ID : S_HDMV/PGS
  172. Codec ID/Info : Picture based subtitle format used on BDs/HD-DVDs
  173. Duration : 1 h 28 min
  174. Bit rate : 66.6 kb/s
  175. Count of elements : 2558
  176. Stream size : 42.3 MiB (0%)
  177. Title : Commentary with writers Chris Matheson and Ed Solomon
  178. Language : English
  179. Default : No
  180. Forced : No

  181. Text #8
  182. ID : 12
  183. Format : PGS
  184. Muxing mode : zlib
  185. Codec ID : S_HDMV/PGS
  186. Codec ID/Info : Picture based subtitle format used on BDs/HD-DVDs
  187. Duration : 1 h 28 min
  188. Bit rate : 26.3 kb/s
  189. Count of elements : 1803
  190. Stream size : 16.7 MiB (0%)
  191. Title : French
  192. Language : French
  193. Default : No
  194. Forced : No

  195. Text #9
  196. ID : 13
  197. Format : PGS
  198. Muxing mode : zlib
  199. Codec ID : S_HDMV/PGS
  200. Codec ID/Info : Picture based subtitle format used on BDs/HD-DVDs
  201. Duration : 1 h 29 min
  202. Bit rate : 60.6 kb/s
  203. Count of elements : 3668
  204. Stream size : 38.6 MiB (0%)
  205. Title : Commentary with actor Alex Winter and producer Scott Kroopf
  206. Language : French
  207. Default : No
  208. Forced : No

  209. Text #10
  210. ID : 14
  211. Format : PGS
  212. Muxing mode : zlib
  213. Codec ID : S_HDMV/PGS
  214. Codec ID/Info : Picture based subtitle format used on BDs/HD-DVDs
  215. Duration : 1 h 28 min
  216. Bit rate : 50.9 kb/s
  217. Count of elements : 3336
  218. Stream size : 32.4 MiB (0%)
  219. Title : Commentary with writers Chris Matheson and Ed Solomon
  220. Language : French
  221. Default : No
  222. Forced : No

  223. Text #11
  224. ID : 15
  225. Format : PGS
  226. Muxing mode : zlib
  227. Codec ID : S_HDMV/PGS
  228. Codec ID/Info : Picture based subtitle format used on BDs/HD-DVDs
  229. Duration : 1 h 25 min
  230. Bit rate : 26.4 kb/s
  231. Count of elements : 1558
  232. Stream size : 16.1 MiB (0%)
  233. Title : German
  234. Language : German
  235. Default : No
  236. Forced : No

  237. Text #12
  238. ID : 16
  239. Format : PGS
  240. Muxing mode : zlib
  241. Codec ID : S_HDMV/PGS
  242. Codec ID/Info : Picture based subtitle format used on BDs/HD-DVDs
  243. Duration : 1 h 29 min
  244. Bit rate : 78.2 kb/s
  245. Count of elements : 3802
  246. Stream size : 49.8 MiB (0%)
  247. Title : Commentary with actor Alex Winter and producer Scott Kroopf
  248. Language : German
  249. Default : No
  250. Forced : No

  251. Text #13
  252. ID : 17
  253. Format : PGS
  254. Muxing mode : zlib
  255. Codec ID : S_HDMV/PGS
  256. Codec ID/Info : Picture based subtitle format used on BDs/HD-DVDs
  257. Duration : 1 h 28 min
  258. Bit rate : 64.9 kb/s
  259. Count of elements : 3316
  260. Stream size : 41.3 MiB (0%)
  261. Title : Commentary with writers Chris Matheson and Ed Solomon
  262. Language : German
  263. Default : No
  264. Forced : No

  265. Menu
  266. 00:00:00.000 : en:Chapter 01
  267. 00:04:54.208 : en:Chapter 02
  268. 00:09:44.917 : en:Chapter 03
  269. 00:16:42.208 : en:Chapter 04
  270. 00:23:50.917 : en:Chapter 05
  271. 00:30:54.542 : en:Chapter 06
  272. 00:41:31.667 : en:Chapter 07
  273. 00:52:25.583 : en:Chapter 08
  274. 00:59:11.333 : en:Chapter 09
  275. 01:07:25.417 : en:Chapter 10
  276. 01:13:40.167 : en:Chapter 11
  277. 01:21:26.500 : en:Chapter 12
复制代码

阿比阿弟闯天关(台) / 超时空历险记 / 阿比阿弟的冒险 / 比尔和泰德的奇异冒险/比尔和泰德历险记4k Bill.and.Teds.Excellent.Adventure.1989.2160p.UHD.BluRay.X265.10bit.HDR.FLAC.2.0-4k电影下载
比尔和泰德历险记4k Bill.and.Teds.Excellent.Adventure.1989.2160p.UHD.BluRay.X265.10bit.HDR.FLAC.2.0【31.90 GB】
比尔和泰德历险记4k Bill.and.Teds.Excellent.Adventure.1989.2160p.UHD.BluRay.X265..torrent
(80.54 KB)
回复

使用道具 举报

发烧友评论5

倒序浏览
您需要登录后才可以回帖 登录 | 立即注册

本版积分规则

在线客服

在线客服

服务时间 9:00—18:00

返回顶部

关注微信公众号第一时间推送精彩

官方微信

手机访问

Hao4K影音

专注4k家庭影音,提供家庭影音社区,家庭影音器材库,影音问答平台,影音商城,服务千万家庭影音用户。

本站内容部分由用户自主分享和转载自互联网,转载目的在于传递更多信息,并不代表本网赞同其观点和对其真实性负责。

如有侵权、违反国家法律政策行为,请联系我们,我们会第一时间及时清除和处理!

举报反馈邮箱:admin@hao4k.cn

Copyright  2019-2020  Hao4K影音粤公网安备 44030302001429号    ( 粤ICP备18155646号-1 )|网站地图