专注4K家庭影音, 服务千万家庭影音发烧友!

孤夜寻凶4k.Raat.Akeli.Hai.2020.2160p.Netflix.WEB-Rip.HIN-ENG.Dolby.Digital.5.1.Atmos.HEVC.Hao4K-4K电影下载

青衫烟雨 发表于 2020-8-8 10:21:13 | 显示全部楼层
电影频道
电影封面:
片  名: 孤夜寻凶
电影分类: 犯罪 惊悚 剧情 悬疑 
国  家: 印度 
年  代: 2020年
分 辨 率: 4K(3840x2160)
电影格式: mp4 
画质标准: 其他 
音质编码: Dolby Digital Plus Audio 
电影声道: 5.1声道 
帧数/FPS: 24 FPS
电影语言: 英文原版 
资源大小: 13.8 GB
导  演: 赫尼·特雷汉
豆瓣评分: 7.5 分
中文字幕: /thread-49036-1-1.html
剧情简介: 一名补擅交际的警察对新婚地主谋杀案展开调查,但受害者家人的遮掩行为和他自己的矛盾内心使调查变得扑朔迷离。
Dans la nuit solitaire/孤夜寻凶4k.Raat.Akeli.Hai.2020.2160p.Netflix.WEB-Rip.HIN-ENG.Dolby.Digital.5.1.Atmos.HEVC.Hao4K-4k电影信息
  1. General
  2. Unique ID                      : 254301640713940991116253935504052317387 (0xBF50B6E7E275ABC980D0EBCED595ECCB)
  3. Complete name                  : F:\Hao4K\孤夜寻凶.Raat.Akeli.Hai.2020.2160p.Netflix.WEB-Rip.HIN-ENG.Dolby Digital.5.1.Atmos.HEVC-Telly.Hao4K.mkv
  4. Format                         : Matroska
  5. Format version                 : Version 4
  6. File size                      : 13.8 GiB
  7. Duration                       : 2 h 29 min
  8. Overall bit rate               : 13.2 Mb/s
  9. Encoded date                   : UTC 2020-08-02 03:50:29
  10. Writing application            : mkvmerge v48.0.0 ('Fortress Around Your Heart') 64-bit
  11. Writing library                : libebml v1.4.0 + libmatroska v1.6.0

  12. Video
  13. ID                             : 1
  14. Format                         : HEVC
  15. Format/Info                    : High Efficiency Video Coding
  16. Format profile                 : Main 10@L5@Main
  17. Codec ID                       : V_MPEGH/ISO/HEVC
  18. Duration                       : 2 h 29 min
  19. Bit rate                       : 11.8 Mb/s
  20. Width                          : 3 840 pixels
  21. Height                         : 2 160 pixels
  22. Display aspect ratio           : 2.35:1
  23. Frame rate mode                : Constant
  24. Frame rate                     : 24.000 FPS
  25. Standard                       : NTSC
  26. Color space                    : YUV
  27. Chroma subsampling             : 4:2:0
  28. Bit depth                      : 10 bits
  29. Bits/(Pixel*Frame)             : 0.059
  30. Stream size                    : 12.4 GiB (89%)
  31. Writing library                : x265 3.4+6-g73f96ff39:[Windows][GCC 11.0.0][64 bit] 10bit
  32. Encoding settings              : cpuid=1111039 / frame-threads=4 / numa-pools=16 / wpp / no-pmode / no-pme / no-psnr / no-ssim / log-level=2 / input-csp=1 / input-res=3840x2160 / interlace=0 / total-frames=215617 / level-idc=0 / high-tier=1 / uhd-bd=0 / ref=1 / no-allow-non-conformance / no-repeat-headers / annexb / no-aud / no-hrd / info / hash=0 / no-temporal-layers / open-gop / min-keyint=24 / keyint=250 / gop-lookahead=0 / bframes=3 / b-adapt=0 / b-pyramid / bframe-bias=0 / rc-lookahead=10 / lookahead-slices=8 / scenecut=40 / hist-scenecut=0 / radl=0 / no-splice / no-intra-refresh / ctu=32 / min-cu-size=8 / no-rect / no-amp / max-tu-size=32 / tu-inter-depth=1 / tu-intra-depth=1 / limit-tu=0 / rdoq-level=0 / dynamic-rd=0.00 / no-ssim-rd / signhide / no-tskip / nr-intra=0 / nr-inter=0 / no-constrained-intra / strong-intra-smoothing / max-merge=2 / limit-refs=0 / no-limit-modes / me=1 / subme=1 / merange=57 / temporal-mvp / no-frame-dup / no-hme / no-weightp / no-weightb / no-analyze-src-pics / no-deblock / no-sao / no-sao-non-deblock / rd=2 / selective-sao=0 / early-skip / rskip / fast-intra / no-tskip-fast / no-cu-lossless / no-b-intra / no-splitrd-skip / rdpenalty=0 / psy-rd=2.00 / psy-rdoq=0.00 / no-rd-refine / no-lossless / cbqpoffs=0 / crqpoffs=0 / rc=abr / bitrate=12000 / qcomp=0.60 / qpstep=4 / stats-write=0 / stats-read=0 / ipratio=1.40 / pbratio=1.30 / aq-mode=1 / aq-strength=0.00 / cutree / zone-count=0 / no-strict-cbr / qg-size=32 / no-rc-grain / qpmax=69 / qpmin=0 / no-const-vbv / sar=255 / sar-width / : / sar-height=45:34 / overscan=0 / videoformat=2 / range=0 / colorprim=1 / transfer=1 / colormatrix=1 / chromaloc=0 / display-window=0 / cll=0,0 / min-luma=0 / max-luma=1023 / log2-max-poc-lsb=8 / vui-timing-info / vui-hrd-info / slices=1 / no-opt-qp-pps / no-opt-ref-list-length-pps / no-multi-pass-opt-rps / scenecut-bias=0.05 / hist-threshold=0.01 / no-opt-cu-delta-qp / no-aq-motion / no-hdr10 / no-hdr10-opt / no-dhdr10-opt / no-idr-recovery-sei / analysis-reuse-level=0 / analysis-save-reuse-level=0 / analysis-load-reuse-level=0 / scale-factor=0 / refine-intra=0 / refine-inter=0 / refine-mv=1 / refine-ctu-distortion=0 / no-limit-sao / ctu-info=0 / no-lowpass-dct / refine-analysis-type=0 / copy-pic=1 / max-ausize-factor=1.0 / no-dynamic-refine / no-single-sei / no-hevc-aq / no-svt / no-field / qp-adaptation-range=1.00 / no-scenecut-aware-qpconformance-window-offsets / right=0 / bottom=0 / decoder-max-rate=0
  33. Default                        : Yes
  34. Forced                         : No
  35. Color range                    : Limited
  36. Color primaries                : BT.709
  37. Transfer characteristics       : BT.709
  38. Matrix coefficients            : BT.709

  39. Audio #1
  40. ID                             : 2
  41. Format                         : E-AC-3
  42. Format/Info                    : Enhanced AC-3
  43. Commercial name                : Dolby Digital Plus
  44. Codec ID                       : A_EAC3
  45. Duration                       : 2 h 29 min
  46. Bit rate mode                  : Constant
  47. Bit rate                       : 640 kb/s
  48. Channel(s)                     : 6 channels
  49. Channel layout                 : L R C LFE Ls Rs
  50. Sampling rate                  : 48.0 kHz
  51. Frame rate                     : 31.250 FPS (1536 SPF)
  52. Compression mode               : Lossy
  53. Stream size                    : 685 MiB (5%)
  54. Title                          : English
  55. Language                       : English
  56. Service kind                   : Complete Main
  57. Default                        : No
  58. Forced                         : No

  59. Audio #2
  60. ID                             : 3
  61. Format                         : E-AC-3 JOC
  62. Format/Info                    : Enhanced AC-3 with Joint Object Coding
  63. Commercial name                : Dolby Digital Plus with Dolby Atmos
  64. Codec ID                       : A_EAC3
  65. Duration                       : 2 h 29 min
  66. Bit rate mode                  : Constant
  67. Bit rate                       : 768 kb/s
  68. Channel(s)                     : 6 channels
  69. Channel layout                 : L R C LFE Ls Rs
  70. Sampling rate                  : 48.0 kHz
  71. Frame rate                     : 31.250 FPS (1536 SPF)
  72. Compression mode               : Lossy
  73. Stream size                    : 823 MiB (6%)
  74. Title                          : Hindi
  75. Language                       : Hindi
  76. Service kind                   : Complete Main
  77. Default                        : Yes
  78. Forced                         : No
  79. Complexity index               : 16
  80. Number of dynamic objects      : 15
  81. Bed channel count              : 1 channel
  82. Bed channel configuration      : LFE

  83. Text #1
  84. ID                             : 4
  85. Format                         : UTF-8
  86. Codec ID                       : S_TEXT/UTF8
  87. Codec ID/Info                  : UTF-8 Plain Text
  88. Duration                       : 2 h 16 min
  89. Bit rate                       : 45 b/s
  90. Count of elements              : 1381
  91. Stream size                    : 45.8 KiB (0%)
  92. Title                          : English
  93. Language                       : English
  94. Default                        : No
  95. Forced                         : No

  96. Text #2
  97. ID                             : 5
  98. Format                         : UTF-8
  99. Codec ID                       : S_TEXT/UTF8
  100. Codec ID/Info                  : UTF-8 Plain Text
  101. Duration                       : 2 h 28 min
  102. Bit rate                       : 66 b/s
  103. Count of elements              : 1383
  104. Stream size                    : 72.7 KiB (0%)
  105. Title                          : Arabic
  106. Language                       : Arabic
  107. Default                        : No
  108. Forced                         : No

  109. Text #3
  110. ID                             : 6
  111. Format                         : UTF-8
  112. Codec ID                       : S_TEXT/UTF8
  113. Codec ID/Info                  : UTF-8 Plain Text
  114. Duration                       : 2 h 28 min
  115. Bit rate                       : 40 b/s
  116. Count of elements              : 1319
  117. Stream size                    : 43.7 KiB (0%)
  118. Title                          : Chinese Simplified
  119. Language                       : Chinese
  120. Default                        : No
  121. Forced                         : No

  122. Text #4
  123. ID                             : 7
  124. Format                         : UTF-8
  125. Codec ID                       : S_TEXT/UTF8
  126. Codec ID/Info                  : UTF-8 Plain Text
  127. Duration                       : 2 h 28 min
  128. Bit rate                       : 40 b/s
  129. Count of elements              : 1385
  130. Stream size                    : 44.0 KiB (0%)
  131. Title                          : Chinese Traditional
  132. Language                       : Chinese
  133. Default                        : No
  134. Forced                         : No

  135. Text #5
  136. ID                             : 8
  137. Format                         : UTF-8
  138. Codec ID                       : S_TEXT/UTF8
  139. Codec ID/Info                  : UTF-8 Plain Text
  140. Duration                       : 2 h 28 min
  141. Bit rate                       : 34 b/s
  142. Count of elements              : 1354
  143. Stream size                    : 37.5 KiB (0%)
  144. Title                          : Croatian
  145. Language                       : Croatian
  146. Default                        : No
  147. Forced                         : No

  148. Text #6
  149. ID                             : 9
  150. Format                         : UTF-8
  151. Codec ID                       : S_TEXT/UTF8
  152. Codec ID/Info                  : UTF-8 Plain Text
  153. Duration                       : 2 h 28 min
  154. Bit rate                       : 38 b/s
  155. Count of elements              : 1369
  156. Stream size                    : 42.4 KiB (0%)
  157. Title                          : Czech
  158. Language                       : Czech
  159. Default                        : No
  160. Forced                         : No

  161. Text #7
  162. ID                             : 10
  163. Format                         : UTF-8
  164. Codec ID                       : S_TEXT/UTF8
  165. Codec ID/Info                  : UTF-8 Plain Text
  166. Duration                       : 2 h 28 min
  167. Bit rate                       : 39 b/s
  168. Count of elements              : 1361
  169. Stream size                    : 43.3 KiB (0%)
  170. Title                          : Danish
  171. Language                       : Danish
  172. Default                        : No
  173. Forced                         : No

  174. Text #8
  175. ID                             : 11
  176. Format                         : UTF-8
  177. Codec ID                       : S_TEXT/UTF8
  178. Codec ID/Info                  : UTF-8 Plain Text
  179. Duration                       : 2 h 28 min
  180. Bit rate                       : 40 b/s
  181. Count of elements              : 1366
  182. Stream size                    : 43.9 KiB (0%)
  183. Title                          : Dutch
  184. Language                       : Dutch
  185. Default                        : No
  186. Forced                         : No

  187. Text #9
  188. ID                             : 12
  189. Format                         : UTF-8
  190. Codec ID                       : S_TEXT/UTF8
  191. Codec ID/Info                  : UTF-8 Plain Text
  192. Duration                       : 2 h 28 min
  193. Bit rate                       : 36 b/s
  194. Count of elements              : 1305
  195. Stream size                    : 40.1 KiB (0%)
  196. Title                          : Finnish
  197. Language                       : Finnish
  198. Default                        : No
  199. Forced                         : No

  200. Text #10
  201. ID                             : 13
  202. Format                         : UTF-8
  203. Codec ID                       : S_TEXT/UTF8
  204. Codec ID/Info                  : UTF-8 Plain Text
  205. Duration                       : 2 h 28 min
  206. Bit rate                       : 41 b/s
  207. Count of elements              : 1366
  208. Stream size                    : 44.7 KiB (0%)
  209. Title                          : French
  210. Language                       : French
  211. Default                        : No
  212. Forced                         : No

  213. Text #11
  214. ID                             : 14
  215. Format                         : UTF-8
  216. Codec ID                       : S_TEXT/UTF8
  217. Codec ID/Info                  : UTF-8 Plain Text
  218. Duration                       : 2 h 28 min
  219. Bit rate                       : 40 b/s
  220. Count of elements              : 1341
  221. Stream size                    : 44.0 KiB (0%)
  222. Title                          : German
  223. Language                       : German
  224. Default                        : No
  225. Forced                         : No

  226. Text #12
  227. ID                             : 15
  228. Format                         : UTF-8
  229. Codec ID                       : S_TEXT/UTF8
  230. Codec ID/Info                  : UTF-8 Plain Text
  231. Duration                       : 2 h 28 min
  232. Bit rate                       : 66 b/s
  233. Count of elements              : 1370
  234. Stream size                    : 72.1 KiB (0%)
  235. Title                          : Greek
  236. Language                       : Greek
  237. Default                        : No
  238. Forced                         : No

  239. Text #13
  240. ID                             : 16
  241. Format                         : UTF-8
  242. Codec ID                       : S_TEXT/UTF8
  243. Codec ID/Info                  : UTF-8 Plain Text
  244. Duration                       : 2 h 28 min
  245. Bit rate                       : 59 b/s
  246. Count of elements              : 1315
  247. Stream size                    : 64.5 KiB (0%)
  248. Title                          : Hebrew
  249. Language                       : Hebrew
  250. Default                        : No
  251. Forced                         : No

  252. Text #14
  253. ID                             : 17
  254. Format                         : UTF-8
  255. Codec ID                       : S_TEXT/UTF8
  256. Codec ID/Info                  : UTF-8 Plain Text
  257. Duration                       : 2 h 22 min
  258. Bit rate                       : 130 b/s
  259. Count of elements              : 1727
  260. Stream size                    : 136 KiB (0%)
  261. Title                          : Hindi
  262. Language                       : Hindi
  263. Default                        : No
  264. Forced                         : No

  265. Text #15
  266. ID                             : 18
  267. Format                         : UTF-8
  268. Codec ID                       : S_TEXT/UTF8
  269. Codec ID/Info                  : UTF-8 Plain Text
  270. Duration                       : 2 s 0 ms
  271. Bit rate                       : 8 b/s
  272. Count of elements              : 1
  273. Stream size                    : 2.00 Bytes (0%)
  274. Title                          : Hindi (Forced)
  275. Language                       : Hindi
  276. Default                        : No
  277. Forced                         : Yes

  278. Text #16
  279. ID                             : 19
  280. Format                         : UTF-8
  281. Codec ID                       : S_TEXT/UTF8
  282. Codec ID/Info                  : UTF-8 Plain Text
  283. Duration                       : 2 h 28 min
  284. Bit rate                       : 40 b/s
  285. Count of elements              : 1386
  286. Stream size                    : 44.4 KiB (0%)
  287. Title                          : Hungarian
  288. Language                       : Hungarian
  289. Default                        : No
  290. Forced                         : No

  291. Text #17
  292. ID                             : 20
  293. Format                         : UTF-8
  294. Codec ID                       : S_TEXT/UTF8
  295. Codec ID/Info                  : UTF-8 Plain Text
  296. Duration                       : 2 h 28 min
  297. Bit rate                       : 37 b/s
  298. Count of elements              : 1398
  299. Stream size                    : 40.8 KiB (0%)
  300. Title                          : Indonesian
  301. Language                       : Indonesian
  302. Default                        : No
  303. Forced                         : No

  304. Text #18
  305. ID                             : 21
  306. Format                         : UTF-8
  307. Codec ID                       : S_TEXT/UTF8
  308. Codec ID/Info                  : UTF-8 Plain Text
  309. Duration                       : 2 h 28 min
  310. Bit rate                       : 40 b/s
  311. Count of elements              : 1381
  312. Stream size                    : 43.6 KiB (0%)
  313. Title                          : Italian
  314. Language                       : Italian
  315. Default                        : No
  316. Forced                         : No

  317. Text #19
  318. ID                             : 22
  319. Format                         : UTF-8
  320. Codec ID                       : S_TEXT/UTF8
  321. Codec ID/Info                  : UTF-8 Plain Text
  322. Duration                       : 2 h 22 min
  323. Bit rate                       : 37 b/s
  324. Count of elements              : 1501
  325. Stream size                    : 38.6 KiB (0%)
  326. Title                          : Japanese
  327. Language                       : Japanese
  328. Default                        : No
  329. Forced                         : No

  330. Text #20
  331. ID                             : 23
  332. Format                         : UTF-8
  333. Codec ID                       : S_TEXT/UTF8
  334. Codec ID/Info                  : UTF-8 Plain Text
  335. Duration                       : 2 h 28 min
  336. Bit rate                       : 51 b/s
  337. Count of elements              : 1397
  338. Stream size                    : 56.1 KiB (0%)
  339. Title                          : Korean
  340. Language                       : Korean
  341. Default                        : No
  342. Forced                         : No

  343. Text #21
  344. ID                             : 24
  345. Format                         : UTF-8
  346. Codec ID                       : S_TEXT/UTF8
  347. Codec ID/Info                  : UTF-8 Plain Text
  348. Duration                       : 2 h 28 min
  349. Bit rate                       : 37 b/s
  350. Count of elements              : 1400
  351. Stream size                    : 41.1 KiB (0%)
  352. Title                          : Malay
  353. Language                       : Malay
  354. Default                        : No
  355. Forced                         : No

  356. Text #22
  357. ID                             : 25
  358. Format                         : UTF-8
  359. Codec ID                       : S_TEXT/UTF8
  360. Codec ID/Info                  : UTF-8 Plain Text
  361. Duration                       : 2 h 28 min
  362. Bit rate                       : 37 b/s
  363. Count of elements              : 1248
  364. Stream size                    : 40.7 KiB (0%)
  365. Title                          : Norwegian Bokmal
  366. Language                       : Norwegian Bokmal
  367. Default                        : No
  368. Forced                         : No

  369. Text #23
  370. ID                             : 26
  371. Format                         : UTF-8
  372. Codec ID                       : S_TEXT/UTF8
  373. Codec ID/Info                  : UTF-8 Plain Text
  374. Duration                       : 2 h 28 min
  375. Bit rate                       : 35 b/s
  376. Count of elements              : 1227
  377. Stream size                    : 39.1 KiB (0%)
  378. Title                          : Polish
  379. Language                       : Polish
  380. Default                        : No
  381. Forced                         : No

  382. Text #24
  383. ID                             : 27
  384. Format                         : UTF-8
  385. Codec ID                       : S_TEXT/UTF8
  386. Codec ID/Info                  : UTF-8 Plain Text
  387. Duration                       : 2 h 28 min
  388. Bit rate                       : 39 b/s
  389. Count of elements              : 1389
  390. Stream size                    : 43.2 KiB (0%)
  391. Title                          : Portuguese
  392. Language                       : Portuguese
  393. Default                        : No
  394. Forced                         : No

  395. Text #25
  396. ID                             : 28
  397. Format                         : UTF-8
  398. Codec ID                       : S_TEXT/UTF8
  399. Codec ID/Info                  : UTF-8 Plain Text
  400. Duration                       : 2 h 23 min
  401. Bit rate                       : 39 b/s
  402. Count of elements              : 1381
  403. Stream size                    : 41.3 KiB (0%)
  404. Title                          : Brazilian Portuguese
  405. Language                       : Portuguese
  406. Default                        : No
  407. Forced                         : No

  408. Text #26
  409. ID                             : 29
  410. Format                         : UTF-8
  411. Codec ID                       : S_TEXT/UTF8
  412. Codec ID/Info                  : UTF-8 Plain Text
  413. Duration                       : 2 h 28 min
  414. Bit rate                       : 44 b/s
  415. Count of elements              : 1353
  416. Stream size                    : 48.4 KiB (0%)
  417. Title                          : Romanian
  418. Language                       : Romanian
  419. Default                        : No
  420. Forced                         : No

  421. Text #27
  422. ID                             : 30
  423. Format                         : UTF-8
  424. Codec ID                       : S_TEXT/UTF8
  425. Codec ID/Info                  : UTF-8 Plain Text
  426. Duration                       : 2 h 28 min
  427. Bit rate                       : 57 b/s
  428. Count of elements              : 1277
  429. Stream size                    : 62.9 KiB (0%)
  430. Title                          : Russian
  431. Language                       : Russian
  432. Default                        : No
  433. Forced                         : No

  434. Text #28
  435. ID                             : 31
  436. Format                         : UTF-8
  437. Codec ID                       : S_TEXT/UTF8
  438. Codec ID/Info                  : UTF-8 Plain Text
  439. Duration                       : 2 h 28 min
  440. Bit rate                       : 39 b/s
  441. Count of elements              : 1392
  442. Stream size                    : 43.0 KiB (0%)
  443. Title                          : Spanish
  444. Language                       : Spanish
  445. Default                        : No
  446. Forced                         : No

  447. Text #29
  448. ID                             : 32
  449. Format                         : UTF-8
  450. Codec ID                       : S_TEXT/UTF8
  451. Codec ID/Info                  : UTF-8 Plain Text
  452. Duration                       : 2 h 28 min
  453. Bit rate                       : 37 b/s
  454. Count of elements              : 1391
  455. Stream size                    : 41.1 KiB (0%)
  456. Title                          : European Spanish
  457. Language                       : Spanish
  458. Default                        : No
  459. Forced                         : No

  460. Text #30
  461. ID                             : 33
  462. Format                         : UTF-8
  463. Codec ID                       : S_TEXT/UTF8
  464. Codec ID/Info                  : UTF-8 Plain Text
  465. Duration                       : 2 h 28 min
  466. Bit rate                       : 40 b/s
  467. Count of elements              : 1334
  468. Stream size                    : 44.3 KiB (0%)
  469. Title                          : Swedish
  470. Language                       : Swedish
  471. Default                        : No
  472. Forced                         : No

  473. Text #31
  474. ID                             : 34
  475. Format                         : UTF-8
  476. Codec ID                       : S_TEXT/UTF8
  477. Codec ID/Info                  : UTF-8 Plain Text
  478. Duration                       : 2 h 28 min
  479. Bit rate                       : 107 b/s
  480. Count of elements              : 1408
  481. Stream size                    : 117 KiB (0%)
  482. Title                          : Thai
  483. Language                       : Thai
  484. Default                        : No
  485. Forced                         : No

  486. Text #32
  487. ID                             : 35
  488. Format                         : UTF-8
  489. Codec ID                       : S_TEXT/UTF8
  490. Codec ID/Info                  : UTF-8 Plain Text
  491. Duration                       : 2 h 28 min
  492. Bit rate                       : 39 b/s
  493. Count of elements              : 1363
  494. Stream size                    : 43.0 KiB (0%)
  495. Title                          : Turkish
  496. Language                       : Turkish
  497. Default                        : No
  498. Forced                         : No

  499. Text #33
  500. ID                             : 36
  501. Format                         : UTF-8
  502. Codec ID                       : S_TEXT/UTF8
  503. Codec ID/Info                  : UTF-8 Plain Text
  504. Duration                       : 2 h 22 min
  505. Bit rate                       : 52 b/s
  506. Count of elements              : 1335
  507. Stream size                    : 55.3 KiB (0%)
  508. Title                          : Vietnamese
  509. Language                       : Vietnamese
  510. Default                        : No
  511. Forced                         : No
复制代码

Dans la nuit solitaire/孤夜寻凶4k.Raat.Akeli.Hai.2020.2160p.Netflix.WEB-Rip.HIN-ENG.Dolby.Digital.5.1.Atmos.HEVC.Hao4K-4K电影下载
孤夜寻凶4k.Raat.Akeli.Hai.2020.2160p.Netflix.WEB-Rip.HIN-ENG.Dolby.Digital.5.1.Atmos.HEVC【13.8 GB】
孤夜寻凶4k.Raat.Akeli.Hai.2020.2160p.Netflix.WEB-Rip.HIN-ENG.Dolby.Digital.5.1.A.torrent
(36.57 KB, 售价: 2 K币)

评分

参与人数 1K币 +15 收起 理由
花落无声 + 15 很给力!

查看全部评分

回复

使用道具 举报

发烧友评论25

倒序浏览
zyp5588640 发表于 前天 08:58 | 显示全部楼层
没有看过这个,好看吗
回复 支持 反对

使用道具 举报

lgg168 发表于 2020-9-2 23:02:50 | 显示全部楼层
谢谢分享,最近的印片不少哦
回复 支持 反对

使用道具 举报

dxfzgsy 发表于 2020-8-17 09:29:29 | 显示全部楼层
喜欢悬疑类的电影,谢谢分享。。。
回复 支持 反对

使用道具 举报

多米 发表于 2020-8-14 18:32:50 | 显示全部楼层
好呀,多谢分享
回复 支持 反对

使用道具 举报

周子鸣 发表于 2020-8-14 09:41:52 | 显示全部楼层
谢谢谢分享,下载了
回复 支持 反对

使用道具 举报

采菊山人 发表于 2020-8-12 11:43:48 | 显示全部楼层
喜欢罪案系列。
回复 支持 反对

使用道具 举报

panbell 发表于 2020-8-12 09:36:30 | 显示全部楼层
楼主辛苦啊,支持一下
回复 支持 反对

使用道具 举报

JFM 发表于 2020-8-11 21:23:25 | 显示全部楼层
谢谢楼主分享
回复 支持 反对

使用道具 举报

cqcyganzj 发表于 2020-8-11 12:19:28 | 显示全部楼层
印度电影这次有点多啊
回复 支持 反对

使用道具 举报

wsfydt 发表于 2020-8-11 11:15:11 | 显示全部楼层
谢谢楼主分享
回复 支持 反对

使用道具 举报

brick826 发表于 2020-8-10 14:21:33 | 显示全部楼层
楼主辛苦了,感谢分享····
回复 支持 反对

使用道具 举报

lgk724 发表于 2020-8-9 15:55:28 | 显示全部楼层
感谢楼主分享
回复 支持 反对

使用道具 举报

您需要登录后才可以回帖 登录 | 立即注册

本版积分规则

在线客服

在线客服

服务时间 9:00—18:00

返回顶部

关注微信公众号第一时间推送精彩

官方微信

手机访问

Hao4K影音

专注4k家庭影音,提供家庭影音社区,家庭影音器材库,影音问答平台,影音商城,服务千万家庭影音用户。

本站内容部分由用户自主分享和转载自互联网,转载目的在于传递更多信息,并不代表本网赞同其观点和对其真实性负责。

如有侵权、违反国家法律政策行为,请联系我们,我们会第一时间及时清除和处理!

举报反馈邮箱:admin@hao4k.cn

Copyright  2019-2020  Hao4K影音粤公网安备 44030302001429号    ( 粤ICP备18155646号-1 )|网站地图