专注4K家庭影音, 服务千万家庭影音发烧友!

行李箱4k.Lootcase.2020.2160p.DSNP.WEB-Rip.Dolby.Digital.5.1.x265-4k电影下载

青衫烟雨 发表于 2020-8-8 10:30:37 | 显示全部楼层
电影频道
电影封面:
片  名: 手提箱4K
电影分类: 喜剧 
国  家: 印度 
年  代: 2020年
分 辨 率: 4K(3840x2160)
电影格式: mp4 
画质标准: 其他 
音质编码: Dolby Digital Plus Audio 
电影声道: 5.1声道 
帧数/FPS: 24 FPS
电影语言: 英文原版 
资源大小: 4.8 GB
导  演: Rajesh Krishnan
豆瓣评分: 7.9 分
中文字幕: -
剧情简介: Nandan Kumar碰到一个手提箱,发现它装满了现金。他拿着手提箱,很快发现自己被一个臭名昭著的黑帮,一个诚实的警察和一个部长追逐。他们不惜一切代价想要这个手提箱
行李箱4k.Lootcase.2020.2160p.DSNP.WEB-Rip.Dolby.Digital.5.1.x265-4k电影信息

  1. General
  2. Unique ID                      : 153154936283261023283033754588882591020 (0x7338915ACEC3C6E31A5DE7A750CEDD2C)
  3. Complete name                  : F:\Hao4K\行李箱4k.Lootcase.2020.2160p.DSNP.WEB-Rip.Dolby.Digital.5.1.x265-Hao4K.mkv
  4. Format                         : Matroska
  5. Format version                 : Version 4
  6. File size                      : 4.81 GiB
  7. Duration                       : 2 h 11 min
  8. Overall bit rate               : 5 221 kb/s
  9. Encoded date                   : UTC 2020-07-31 23:22:59
  10. Writing application            : mkvmerge v47.0.0 ('Black Flag') 64-bit
  11. Writing library                : libebml v1.3.10 + libmatroska v1.5.2

  12. Video
  13. ID                             : 1
  14. Format                         : HEVC
  15. Format/Info                    : High Efficiency Video Coding
  16. Format profile                 : Main 10@L5@Main
  17. Codec ID                       : V_MPEGH/ISO/HEVC
  18. Duration                       : 2 h 11 min
  19. Bit rate                       : 5 027 kb/s
  20. Width                          : 3 840 pixels
  21. Height                         : 1 600 pixels
  22. Display aspect ratio           : 2.40:1
  23. Frame rate mode                : Constant
  24. Frame rate                     : 24.000 FPS
  25. Standard                       : NTSC
  26. Color space                    : YUV
  27. Chroma subsampling             : 4:2:0
  28. Bit depth                      : 10 bits
  29. Bits/(Pixel*Frame)             : 0.034
  30. Stream size                    : 4.63 GiB (96%)
  31. Writing library                : x265 3.4+6-g73f96ff39:[Windows][GCC 11.0.0][64 bit] 10bit
  32. Encoding settings              : cpuid=1111039 / frame-threads=4 / numa-pools=16 / wpp / no-pmode / no-pme / no-psnr / no-ssim / log-level=2 / input-csp=1 / input-res=3840x1600 / interlace=0 / total-frames=190014 / level-idc=0 / high-tier=1 / uhd-bd=0 / ref=1 / no-allow-non-conformance / no-repeat-headers / annexb / no-aud / no-hrd / info / hash=0 / no-temporal-layers / open-gop / min-keyint=24 / keyint=250 / gop-lookahead=0 / bframes=3 / b-adapt=0 / b-pyramid / bframe-bias=0 / rc-lookahead=10 / lookahead-slices=8 / scenecut=40 / hist-scenecut=0 / radl=0 / no-splice / no-intra-refresh / ctu=32 / min-cu-size=8 / no-rect / no-amp / max-tu-size=32 / tu-inter-depth=1 / tu-intra-depth=1 / limit-tu=0 / rdoq-level=0 / dynamic-rd=0.00 / no-ssim-rd / signhide / no-tskip / nr-intra=0 / nr-inter=0 / no-constrained-intra / strong-intra-smoothing / max-merge=2 / limit-refs=0 / no-limit-modes / me=1 / subme=1 / merange=57 / temporal-mvp / no-frame-dup / no-hme / no-weightp / no-weightb / no-analyze-src-pics / no-deblock / no-sao / no-sao-non-deblock / rd=2 / selective-sao=0 / early-skip / rskip / fast-intra / no-tskip-fast / no-cu-lossless / no-b-intra / no-splitrd-skip / rdpenalty=0 / psy-rd=2.00 / psy-rdoq=0.00 / no-rd-refine / no-lossless / cbqpoffs=0 / crqpoffs=0 / rc=abr / bitrate=5000 / qcomp=0.60 / qpstep=4 / stats-write=0 / stats-read=0 / ipratio=1.40 / pbratio=1.30 / aq-mode=1 / aq-strength=0.00 / cutree / zone-count=0 / no-strict-cbr / qg-size=32 / no-rc-grain / qpmax=69 / qpmin=0 / no-const-vbv / sar=0 / overscan=0 / videoformat=2 / range=0 / colorprim=1 / transfer=1 / colormatrix=1 / chromaloc=0 / display-window=0 / cll=0,0 / min-luma=0 / max-luma=1023 / log2-max-poc-lsb=8 / vui-timing-info / vui-hrd-info / slices=1 / no-opt-qp-pps / no-opt-ref-list-length-pps / no-multi-pass-opt-rps / scenecut-bias=0.05 / hist-threshold=0.01 / no-opt-cu-delta-qp / no-aq-motion / no-hdr10 / no-hdr10-opt / no-dhdr10-opt / no-idr-recovery-sei / analysis-reuse-level=0 / analysis-save-reuse-level=0 / analysis-load-reuse-level=0 / scale-factor=0 / refine-intra=0 / refine-inter=0 / refine-mv=1 / refine-ctu-distortion=0 / no-limit-sao / ctu-info=0 / no-lowpass-dct / refine-analysis-type=0 / copy-pic=1 / max-ausize-factor=1.0 / no-dynamic-refine / no-single-sei / no-hevc-aq / no-svt / no-field / qp-adaptation-range=1.00 / no-scenecut-aware-qpconformance-window-offsets / right=0 / bottom=0 / decoder-max-rate=0
  33. Default                        : Yes
  34. Forced                         : No
  35. Color range                    : Limited
  36. Color primaries                : BT.709
  37. Transfer characteristics       : BT.709
  38. Matrix coefficients            : BT.709

  39. Audio
  40. ID                             : 2
  41. Format                         : E-AC-3
  42. Format/Info                    : Enhanced AC-3
  43. Commercial name                : Dolby Digital Plus
  44. Codec ID                       : A_EAC3
  45. Duration                       : 2 h 11 min
  46. Bit rate mode                  : Constant
  47. Bit rate                       : 192 kb/s
  48. Channel(s)                     : 6 channels
  49. Channel layout                 : L R C LFE Ls Rs
  50. Sampling rate                  : 48.0 kHz
  51. Frame rate                     : 31.250 FPS (1536 SPF)
  52. Compression mode               : Lossy
  53. Stream size                    : 181 MiB (4%)
  54. Language                       : Hindi
  55. Service kind                   : Complete Main
  56. Default                        : No
  57. Forced                         : No

  58. Text
  59. ID                             : 3
  60. Format                         : UTF-8
  61. Codec ID                       : S_TEXT/UTF8
  62. Codec ID/Info                  : UTF-8 Plain Text
  63. Duration                       : 2 h 4 min
  64. Bit rate                       : 53 b/s
  65. Count of elements              : 1546
  66. Stream size                    : 48.7 KiB (0%)
  67. Language                       : English
  68. Default                        : No
  69. Forced                         : No
复制代码

行李箱4k.Lootcase.2020.2160p.DSNP.WEB-Rip.Dolby.Digital.5.1.x265-4k电影下载
行李箱4k.Lootcase.2020.2160p.DSNP.WEB-Rip.Dolby.Digital.5.1.x265【4.8 GB】
行李箱4k.Lootcase.2020.2160p.DSNP.WEB-Rip.Dolby.Digital.5.1.x265-Hao4K.torrent
(13.94 KB, 售价: 2 K币)

评分

参与人数 1K币 +15 收起 理由
花落无声 + 15 赞一个!

查看全部评分

回复

使用道具 举报

发烧友评论20

倒序浏览
88082335 发表于 2020-9-11 11:19:17 | 显示全部楼层
求字幕,这个网上也找不到
回复 支持 反对

使用道具 举报

天裂狐 发表于 2020-8-24 12:03:25 | 显示全部楼层
ddddddddddd
回复 支持 反对

使用道具 举报

lb1218 发表于 2020-8-16 21:34:02 Hao4K手机版 | 显示全部楼层
谢谢分享谢谢分享
回复 支持 反对

使用道具 举报

sonic_eldly 发表于 2020-8-13 21:30:30 | 显示全部楼层
试试好不好看
回复 支持 反对

使用道具 举报

Zzy_123 发表于 2020-8-12 17:11:01 | 显示全部楼层
看看印度片的歌舞剧也挺好的
回复 支持 反对

使用道具 举报

独孤求败 发表于 2020-8-11 22:53:51 | 显示全部楼层
希望能够复制信息
回复 支持 反对

使用道具 举报

beyondband 发表于 2020-8-11 02:32:50 | 显示全部楼层
Lootcase 这个豆瓣都没有什么信息,不知道好不好看。
回复 支持 反对

使用道具 举报

z-fh 发表于 2020-8-10 15:34:51 | 显示全部楼层
信息不能复制,收藏困难了
回复 支持 1 反对 0

使用道具 举报

sfdb123 发表于 2020-8-9 12:35:44 | 显示全部楼层
没有中文字幕
回复 支持 反对

使用道具 举报

dyczw 发表于 2020-8-9 06:59:22 | 显示全部楼层
感谢分享,辛苦了!
回复 支持 反对

使用道具 举报

BOQIJIN 发表于 2020-8-8 21:37:02 Hao4K手机版 | 显示全部楼层
印度电影大爆发。
回复 支持 反对

使用道具 举报

您需要登录后才可以回帖 登录 | 立即注册

本版积分规则

在线客服

在线客服

服务时间 9:00—18:00

返回顶部

关注微信公众号第一时间推送精彩

官方微信

手机访问

Hao4K影音

专注4k家庭影音,提供家庭影音社区,家庭影音器材库,影音问答平台,影音商城,服务千万家庭影音用户。

本站内容部分由用户自主分享和转载自互联网,转载目的在于传递更多信息,并不代表本网赞同其观点和对其真实性负责。

如有侵权、违反国家法律政策行为,请联系我们,我们会第一时间及时清除和处理!

举报反馈邮箱:admin@hao4k.cn

Copyright  2019-2020  Hao4K影音粤公网安备 44030302001429号    ( 粤ICP备18155646号-1 )|网站地图