专注4K家庭影音, 服务千万家庭影音发烧友!

追踪再现4K.Don2006.UHD.2160p.HEVC.SDR.DTS-HDMA.5.1-4K电影下载

BINGDUBIANHAO 发表于 2020-8-8 22:37:45 | 显示全部楼层
电影频道
电影封面:
片  名: 追踪再现4K
电影分类: 动作 惊悚 喜剧 歌舞 爱情片 
国  家: 印度 
年  代: 2010年
分 辨 率: 4K(3840x2160)
电影格式: MKV|REMUX 
画质标准: SDR 
音质编码: DTS-HD Master Audio 
电影声道: 5.1声道 
帧数/FPS: 24 FPS
电影语言: 英文原版 
资源大小: 26.5 GB
导  演: 法尔汉·阿赫塔尔
豆瓣评分: 7.4 分
中文字幕: -
剧情简介: 唐(沙鲁克·罕 Shahrukh Khan 饰)是大毒枭波利斯的手下,而波利斯神龙见首不见尾,行踪诡秘,因此,在外抛头露面的唐成为了警察重点追捕的对象。唐嗜血残暴,无恶不作,杀人不眨眼,卡米妮(卡琳娜·卡普 Kareena Kapoor 饰)的丈夫就是唐的手下冤魂。为了替丈夫报仇,卡米妮决定与警方合作,却不幸因此而丢了性命。
  一场意外让唐死于非命,与此同时,一位相貌与唐一模一样的神秘男子瓦尔加(沙鲁克·罕 Shahrukh Khan 饰)浮出了水面。瓦尔加本只是一介平凡少年,最终却在利诱之下成为了唐的替身以及线人,而他的存在遮掩了一个惊人的秘密,隐藏在这个秘密背后的真相究竟是什么呢?
夺面煞星宝莱坞(港)/追踪再现4K.Don2006.UHD.2160p.HEVC.SDR.DTS-HDMA.5.1-4k电影信息
  1. General
  2. Unique ID                      : 305897212987582787455624011802769030250 (0xE621A90578B4B3F64280B52D164EFC6A)
  3. Complete name                  : F:\Hao4K\Don 2006.UHD.2160p.HEVC.SDR.DTS-HDMA.5.1-Hao4K.mkv
  4. Format                         : Matroska
  5. Format version                 : Version 4
  6. File size                      : 26.5 GiB
  7. Duration                       : 2 h 48 min
  8. Overall bit rate mode          : Variable
  9. Overall bit rate               : 22.5 Mb/s
  10. Encoded date                   : UTC 2019-03-26 19:24:48
  11. Writing application            : mkvmerge v32.0.0 ('Astral Progressions') 64-bit
  12. Writing library                : libebml v1.3.7 + libmatroska v1.5.0

  13. Video
  14. ID                             : 1
  15. Format                         : HEVC
  16. Format/Info                    : High Efficiency Video Coding
  17. Format profile                 : Main 10@L5.1@High
  18. Codec ID                       : V_MPEGH/ISO/HEVC
  19. Duration                       : 2 h 48 min
  20. Bit rate                       : 20.2 Mb/s
  21. Width                          : 3 840 pixels
  22. Height                         : 1 632 pixels
  23. Display aspect ratio           : 2.35:1
  24. Frame rate mode                : Constant
  25. Frame rate                     : 24.000 FPS
  26. Color space                    : YUV
  27. Chroma subsampling             : 4:2:0
  28. Bit depth                      : 10 bits
  29. Bits/(Pixel*Frame)             : 0.134
  30. Stream size                    : 23.8 GiB (90%)
  31. Language                       : English
  32. Default                        : Yes
  33. Forced                         : No
  34. Color range                    : Limited
  35. Color primaries                : BT.709
  36. Transfer characteristics       : BT.709
  37. Matrix coefficients            : BT.709

  38. Audio
  39. ID                             : 2
  40. Format                         : DTS XLL
  41. Format/Info                    : Digital Theater Systems
  42. Commercial name                : DTS-HD Master Audio
  43. Codec ID                       : A_DTS
  44. Duration                       : 2 h 48 min
  45. Bit rate mode                  : Variable
  46. Bit rate                       : 2 286 kb/s
  47. Channel(s)                     : 6 channels
  48. Channel layout                 : C L R Ls Rs LFE
  49. Sampling rate                  : 48.0 kHz
  50. Frame rate                     : 93.750 FPS (512 SPF)
  51. Bit depth                      : 16 bits
  52. Compression mode               : Lossless
  53. Stream size                    : 2.69 GiB (10%)
  54. Language                       : Hindi
  55. Default                        : Yes
  56. Forced                         : No

  57. Text #1
  58. ID                             : 3
  59. Format                         : PGS
  60. Muxing mode                    : zlib
  61. Codec ID                       : S_HDMV/PGS
  62. Codec ID/Info                  : Picture based subtitle format used on BDs/HD-DVDs
  63. Duration                       : 2 h 24 min
  64. Bit rate                       : 2 886 b/s
  65. Count of elements              : 420
  66. Stream size                    : 2.99 MiB (0%)
  67. Language                       : English
  68. Default                        : Yes
  69. Forced                         : No

  70. Text #2
  71. ID                             : 4
  72. Format                         : PGS
  73. Muxing mode                    : zlib
  74. Codec ID                       : S_HDMV/PGS
  75. Codec ID/Info                  : Picture based subtitle format used on BDs/HD-DVDs
  76. Duration                       : 2 h 45 min
  77. Bit rate                       : 21.3 kb/s
  78. Count of elements              : 2890
  79. Stream size                    : 25.2 MiB (0%)
  80. Language                       : German
  81. Default                        : No
  82. Forced                         : No

  83. Menu
  84. 00:00:00.000                   : :Chapter 01
  85. 00:01:00.833                   : :Chapter 02
  86. 00:05:42.041                   : :Chapter 03
  87. 00:13:45.416                   : :Chapter 04
  88. 00:22:53.791                   : :Chapter 05
  89. 00:27:20.000                   : :Chapter 06
  90. 00:37:03.750                   : :Chapter 07
  91. 00:44:31.291                   : :Chapter 08
  92. 00:54:28.250                   : :Chapter 09
  93. 01:03:04.458                   : :Chapter 10
  94. 01:09:10.291                   : :Chapter 11
  95. 01:19:29.208                   : :Chapter 12
  96. 01:28:20.000                   : :Chapter 13
  97. 01:39:46.583                   : :Chapter 14
  98. 01:49:10.583                   : :Chapter 15
  99. 02:04:31.958                   : :Chapter 16
  100. 02:09:30.083                   : :Chapter 17
  101. 02:16:55.666                   : :Chapter 18
  102. 02:30:23.125                   : :Chapter 19
  103. 02:41:30.750                   : :Chapter 20
复制代码

夺面煞星宝莱坞(港)/追踪再现4K.Don2006.UHD.2160p.HEVC.SDR.DTS-HDMA.5.1-4K电影下载
追踪再现4K.Don2006.UHD.2160p.HEVC.SDR.DTS-HDMA.5.1[26.5GB]
追踪再现4k.Don 2006.UHD.2160p.HEVC.SDR.DTS-HDMA.5.1-Hao4K.torrent
(68.3 KB, 售价: 1 K币)

评分

参与人数 1H币 +8 收起 理由
老顽童 + 8 楼主优秀

查看全部评分

回复

使用道具 举报

发烧友评论28

倒序浏览
yangly 发表于 4 天前 | 显示全部楼层
感谢楼主分享
回复 支持 反对

使用道具 举报

唐堂 发表于 2020-9-15 09:53:21 | 显示全部楼层
想要的都在这个平台找到了 太感谢楼主的分享
回复 支持 反对

使用道具 举报

布金园 发表于 2020-9-4 22:35:54 | 显示全部楼层
hao4k有您而精彩,谢谢分享!
回复 支持 反对

使用道具 举报

9527a 发表于 2020-9-4 18:51:24 | 显示全部楼层
这部印度电影应该是不错的,不过4K印度的不多,不知道这电影怎么样?等下好再看。
回复 支持 反对

使用道具 举报

mwk_xy 发表于 2020-8-30 17:02:45 | 显示全部楼层
下载观看,很不错的印度片子
回复 支持 反对

使用道具 举报

biaogoodluck 发表于 2020-8-27 13:53:46 | 显示全部楼层
十分感谢,谢谢分享
回复 支持 反对

使用道具 举报

ken0569 发表于 2020-8-15 15:34:58 | 显示全部楼层
好棒啊 謝謝楼主分享 辛苦您了
回复 支持 反对

使用道具 举报

panbell 发表于 2020-8-14 09:18:04 | 显示全部楼层
谢谢分享哦
回复 支持 反对

使用道具 举报

kong009 发表于 2020-8-12 20:54:59 | 显示全部楼层
在吗楼主,我喜欢
回复 支持 反对

使用道具 举报

wds99688 发表于 2020-8-12 17:24:54 | 显示全部楼层
下载观看,很不错的印度片子
回复 支持 反对

使用道具 举报

g3353 发表于 2020-8-12 16:53:20 | 显示全部楼层
好评感谢分享
回复 支持 反对

使用道具 举报

panbell 发表于 2020-8-12 09:37:07 | 显示全部楼层
楼主辛苦啊,支持一下
回复 支持 反对

使用道具 举报

mywqwq 发表于 2020-8-11 14:58:19 | 显示全部楼层
感谢楼主分享
回复 支持 反对

使用道具 举报

您需要登录后才可以回帖 登录 | 立即注册

本版积分规则

在线客服

在线客服

服务时间 9:00—18:00

返回顶部

关注微信公众号第一时间推送精彩

官方微信

手机访问

Hao4K影音

专注4k家庭影音,提供家庭影音社区,家庭影音器材库,影音问答平台,影音商城,服务千万家庭影音用户。

本站内容部分由用户自主分享和转载自互联网,转载目的在于传递更多信息,并不代表本网赞同其观点和对其真实性负责。

如有侵权、违反国家法律政策行为,请联系我们,我们会第一时间及时清除和处理!

举报反馈邮箱:admin@hao4k.cn

Copyright  2019-2020  Hao4K影音粤公网安备 44030302001429号    ( 粤ICP备18155646号-1 )|网站地图