专注4K家庭影音, 服务千万家庭影音发烧友!

[美剧] 足球教练4k Ted.Lasso.S01E01.HDR.2160p.WEB.H265-4k美剧下载

大红色 发表于 2020-8-14 21:39:31 | 显示全部楼层
电视剧频道
电视剧封面:
电视剧名: 足球教练4k
年  代: 2020  
国  家: 美国
类  别: 喜剧 
语  言: 英语
字  幕: 英文原版
上映日期: 2020-08-14
文件格式: mkv    
视频效果: 4K(3840x2160)    
资源大小: 5.41 GB
片  长: 30 分钟
导  演: 德克兰·罗内 / 埃利奥特·赫加蒂 / 汤姆·马歇尔
剧情简介: 美式足球教练泰德拉素 (积逊苏迪坚斯 饰),受聘前往英格兰担任英超足球队教练。由于毫无相关执教经验,他未能获得球员及当地球迷的信任,但他誓要向大家证明:我是乜都得!
乜都得教练/足球教练4k Ted.Lasso.S01E01.HDR.2160p.WEB.H265-4k美剧信息
  1. Video
  2. ID : 1
  3. Format : HEVC
  4. Format/Info : High Efficiency Video Coding
  5. Format profile : Main 10@L5@High
  6. Codec ID : V_MPEGH/ISO/HEVC
  7. Duration : 30 min 55 s
  8. Bit rate : 20.9 Mb/s
  9. Width : 3 840 pixels
  10. Height : 1 920 pixels
  11. Display aspect ratio : 2.000
  12. Frame rate mode : Constant
  13. Frame rate : 23.976 (24000/1001) FPS
  14. Color space : YUV
  15. Chroma subsampling : 4:2:0
  16. Bit depth : 10 bits
  17. Bits/(Pixel*Frame) : 0.118
  18. Stream size : 4.51 GiB (96%)
  19. Language : English
  20. Default : Yes
  21. Forced : No
  22. Color range : Limited
  23. Color primaries : BT.709
  24. Transfer characteristics : BT.709
  25. Matrix coefficients : BT.709

  26. Audio
  27. ID : 2
  28. Format : E-AC-3 JOC
  29. Format/Info : Enhanced AC-3 with Joint Object Coding
  30. Commercial name : Dolby Digital Plus with Dolby Atmos
  31. Codec ID : A_EAC3
  32. Duration : 30 min 55 s
  33. Bit rate mode : Constant
  34. Bit rate : 768 kb/s
  35. Channel(s) : 6 channels
  36. Channel layout : L R C LFE Ls Rs
  37. Sampling rate : 48.0 kHz
  38. Frame rate : 31.250 FPS (1536 SPF)
  39. Compression mode : Lossy
  40. Stream size : 170 MiB (4%)
  41. Language : English
  42. Service kind : Complete Main
  43. Default : Yes
  44. Forced : No
  45. Complexity index : 16
  46. Number of dynamic objects : 15
  47. Bed channel count : 1 channel
  48. Bed channel configuration : LFE

  49. Text #1
  50. ID : 3
  51. Format : UTF-8
  52. Codec ID : S_TEXT/UTF8
  53. Codec ID/Info : UTF-8 Plain Text
  54. Duration : 30 min 39 s
  55. Bit rate : 116 b/s
  56. Count of elements : 583
  57. Stream size : 26.2 KiB (0%)
  58. Title : العربية
  59. Language : Arabic
  60. Default : No
  61. Forced : No

  62. Text #2
  63. ID : 4
  64. Format : UTF-8
  65. Codec ID : S_TEXT/UTF8
  66. Codec ID/Info : UTF-8 Plain Text
  67. Duration : 30 min 39 s
  68. Bit rate : 108 b/s
  69. Count of elements : 554
  70. Stream size : 24.4 KiB (0%)
  71. Title : български
  72. Language : Bulgarian
  73. Default : No
  74. Forced : No

  75. Text #3
  76. ID : 5
  77. Format : UTF-8
  78. Codec ID : S_TEXT/UTF8
  79. Codec ID/Info : UTF-8 Plain Text
  80. Duration : 30 min 39 s
  81. Bit rate : 70 b/s
  82. Count of elements : 520
  83. Stream size : 15.8 KiB (0%)
  84. Title : Čeština
  85. Language : Czech
  86. Default : No
  87. Forced : No

  88. Text #4
  89. ID : 6
  90. Format : UTF-8
  91. Codec ID : S_TEXT/UTF8
  92. Codec ID/Info : UTF-8 Plain Text
  93. Duration : 30 min 39 s
  94. Bit rate : 66 b/s
  95. Count of elements : 405
  96. Stream size : 14.9 KiB (0%)
  97. Title : dansk
  98. Language : Danish
  99. Default : No
  100. Forced : No

  101. Text #5
  102. ID : 7
  103. Format : UTF-8
  104. Codec ID : S_TEXT/UTF8
  105. Codec ID/Info : UTF-8 Plain Text
  106. Duration : 30 min 15 s
  107. Bit rate : 76 b/s
  108. Count of elements : 577
  109. Stream size : 16.9 KiB (0%)
  110. Title : Deutsch
  111. Language : German
  112. Default : No
  113. Forced : No

  114. Text #6
  115. ID : 8
  116. Format : UTF-8
  117. Codec ID : S_TEXT/UTF8
  118. Codec ID/Info : UTF-8 Plain Text
  119. Duration : 30 min 39 s
  120. Bit rate : 138 b/s
  121. Count of elements : 556
  122. Stream size : 31.2 KiB (0%)
  123. Title : Ελληνικά
  124. Language : Greek
  125. Default : No
  126. Forced : No

  127. Text #7
  128. ID : 9
  129. Format : UTF-8
  130. Codec ID : S_TEXT/UTF8
  131. Codec ID/Info : UTF-8 Plain Text
  132. Duration : 30 min 20 s
  133. Bit rate : 94 b/s
  134. Count of elements : 652
  135. Stream size : 20.9 KiB (0%)
  136. Title : English (SDH)
  137. Language : English
  138. Default : No
  139. Forced : No

  140. Text #8
  141. ID : 10
  142. Format : UTF-8
  143. Codec ID : S_TEXT/UTF8
  144. Codec ID/Info : UTF-8 Plain Text
  145. Duration : 30 min 8 s
  146. Bit rate : 86 b/s
  147. Count of elements : 571
  148. Stream size : 19.0 KiB (0%)
  149. Title : English
  150. Language : English
  151. Default : No
  152. Forced : No

  153. Text #9
  154. ID : 11
  155. Format : UTF-8
  156. Codec ID : S_TEXT/UTF8
  157. Codec ID/Info : UTF-8 Plain Text
  158. Duration : 30 min 45 s
  159. Bit rate : 75 b/s
  160. Count of elements : 537
  161. Stream size : 17.0 KiB (0%)
  162. Title : Español (España)
  163. Language : Spanish
  164. Default : No
  165. Forced : No

  166. Text #10
  167. ID : 12
  168. Format : UTF-8
  169. Codec ID : S_TEXT/UTF8
  170. Codec ID/Info : UTF-8 Plain Text
  171. Duration : 30 min 39 s
  172. Bit rate : 78 b/s
  173. Count of elements : 579
  174. Stream size : 17.6 KiB (0%)
  175. Title : Español (Latinoamérica)
  176. Language : Spanish
  177. Default : No
  178. Forced : No

  179. Text #11
  180. ID : 13
  181. Format : UTF-8
  182. Codec ID : S_TEXT/UTF8
  183. Codec ID/Info : UTF-8 Plain Text
  184. Duration : 30 min 39 s
  185. Bit rate : 73 b/s
  186. Count of elements : 553
  187. Stream size : 16.4 KiB (0%)
  188. Title : eesti
  189. Language : Estonian
  190. Default : No
  191. Forced : No

  192. Text #12
  193. ID : 14
  194. Format : UTF-8
  195. Codec ID : S_TEXT/UTF8
  196. Codec ID/Info : UTF-8 Plain Text
  197. Duration : 30 min 39 s
  198. Bit rate : 77 b/s
  199. Count of elements : 579
  200. Stream size : 17.3 KiB (0%)
  201. Title : Suomi
  202. Language : Finnish
  203. Default : No
  204. Forced : No

  205. Text #13
  206. ID : 15
  207. Format : UTF-8
  208. Codec ID : S_TEXT/UTF8
  209. Codec ID/Info : UTF-8 Plain Text
  210. Duration : 30 min 32 s
  211. Bit rate : 69 b/s
  212. Count of elements : 512
  213. Stream size : 15.6 KiB (0%)
  214. Title : Français (France)
  215. Language : French
  216. Default : No
  217. Forced : No

  218. Text #14
  219. ID : 16
  220. Format : UTF-8
  221. Codec ID : S_TEXT/UTF8
  222. Codec ID/Info : UTF-8 Plain Text
  223. Duration : 30 min 32 s
  224. Bit rate : 69 b/s
  225. Count of elements : 512
  226. Stream size : 15.6 KiB (0%)
  227. Title : Français (Canada)
  228. Language : French
  229. Default : No
  230. Forced : No

  231. Text #15
  232. ID : 17
  233. Format : UTF-8
  234. Codec ID : S_TEXT/UTF8
  235. Codec ID/Info : UTF-8 Plain Text
  236. Duration : 30 min 39 s
  237. Bit rate : 112 b/s
  238. Count of elements : 584
  239. Stream size : 25.4 KiB (0%)
  240. Title : עברית
  241. Language : Hebrew
  242. Default : No
  243. Forced : No

  244. Text #16
  245. ID : 18
  246. Format : UTF-8
  247. Codec ID : S_TEXT/UTF8
  248. Codec ID/Info : UTF-8 Plain Text
  249. Duration : 30 min 39 s
  250. Bit rate : 202 b/s
  251. Count of elements : 585
  252. Stream size : 45.5 KiB (0%)
  253. Title : हिन्दी
  254. Language : Hindi
  255. Default : No
  256. Forced : No

  257. Text #17
  258. ID : 19
  259. Format : UTF-8
  260. Codec ID : S_TEXT/UTF8
  261. Codec ID/Info : UTF-8 Plain Text
  262. Duration : 30 min 39 s
  263. Bit rate : 80 b/s
  264. Count of elements : 570
  265. Stream size : 18.0 KiB (0%)
  266. Title : magyar
  267. Language : Hungarian
  268. Default : No
  269. Forced : No

  270. Text #18
  271. ID : 20
  272. Format : UTF-8
  273. Codec ID : S_TEXT/UTF8
  274. Codec ID/Info : UTF-8 Plain Text
  275. Duration : 30 min 39 s
  276. Bit rate : 73 b/s
  277. Count of elements : 580
  278. Stream size : 16.5 KiB (0%)
  279. Title : Bahasa Indonesia
  280. Language : Indonesian
  281. Default : No
  282. Forced : No

  283. Text #19
  284. ID : 21
  285. Format : UTF-8
  286. Codec ID : S_TEXT/UTF8
  287. Codec ID/Info : UTF-8 Plain Text
  288. Duration : 30 min 42 s
  289. Bit rate : 81 b/s
  290. Count of elements : 575
  291. Stream size : 18.3 KiB (0%)
  292. Title : Italiano
  293. Language : Italian
  294. Default : No
  295. Forced : No

  296. Text #20
  297. ID : 22
  298. Format : UTF-8
  299. Codec ID : S_TEXT/UTF8
  300. Codec ID/Info : UTF-8 Plain Text
  301. Duration : 30 min 45 s
  302. Bit rate : 62 b/s
  303. Count of elements : 539
  304. Stream size : 14.2 KiB (0%)
  305. Title : 日本語
  306. Language : Japanese
  307. Default : No
  308. Forced : No

  309. Text #21
  310. ID : 23
  311. Format : UTF-8
  312. Codec ID : S_TEXT/UTF8
  313. Codec ID/Info : UTF-8 Plain Text
  314. Duration : 30 min 39 s
  315. Bit rate : 85 b/s
  316. Count of elements : 584
  317. Stream size : 19.2 KiB (0%)
  318. Title : lietuvių
  319. Language : Lithuanian
  320. Default : No
  321. Forced : No

  322. Text #22
  323. ID : 24
  324. Format : UTF-8
  325. Codec ID : S_TEXT/UTF8
  326. Codec ID/Info : UTF-8 Plain Text
  327. Duration : 30 min 39 s
  328. Bit rate : 78 b/s
  329. Count of elements : 551
  330. Stream size : 17.6 KiB (0%)
  331. Title : latviešu
  332. Language : Latvian
  333. Default : No
  334. Forced : No

  335. Text #23
  336. ID : 25
  337. Format : UTF-8
  338. Codec ID : S_TEXT/UTF8
  339. Codec ID/Info : UTF-8 Plain Text
  340. Duration : 30 min 39 s
  341. Bit rate : 81 b/s
  342. Count of elements : 580
  343. Stream size : 18.3 KiB (0%)
  344. Title : Bahasa Melayu
  345. Language : Malay
  346. Default : No
  347. Forced : No

  348. Text #24
  349. ID : 26
  350. Format : UTF-8
  351. Codec ID : S_TEXT/UTF8
  352. Codec ID/Info : UTF-8 Plain Text
  353. Duration : 30 min 1 s
  354. Bit rate : 57 b/s
  355. Count of elements : 414
  356. Stream size : 12.7 KiB (0%)
  357. Title : Nederlands
  358. Language : Dutch
  359. Default : No
  360. Forced : No

  361. Text #25
  362. ID : 27
  363. Format : UTF-8
  364. Codec ID : S_TEXT/UTF8
  365. Codec ID/Info : UTF-8 Plain Text
  366. Duration : 30 min 1 s
  367. Bit rate : 64 b/s
  368. Count of elements : 485
  369. Stream size : 14.2 KiB (0%)
  370. Title : norsk
  371. Language : Norwegian
  372. Default : No
  373. Forced : No

  374. Text #26
  375. ID : 28
  376. Format : UTF-8
  377. Codec ID : S_TEXT/UTF8
  378. Codec ID/Info : UTF-8 Plain Text
  379. Duration : 30 min 39 s
  380. Bit rate : 78 b/s
  381. Count of elements : 578
  382. Stream size : 17.7 KiB (0%)
  383. Title : polski
  384. Language : Polish
  385. Default : No
  386. Forced : No

  387. Text #27
  388. ID : 29
  389. Format : UTF-8
  390. Codec ID : S_TEXT/UTF8
  391. Codec ID/Info : UTF-8 Plain Text
  392. Duration : 30 min 39 s
  393. Bit rate : 72 b/s
  394. Count of elements : 561
  395. Stream size : 16.2 KiB (0%)
  396. Title : Português
  397. Language : Portuguese
  398. Default : No
  399. Forced : No

  400. Text #28
  401. ID : 30
  402. Format : UTF-8
  403. Codec ID : S_TEXT/UTF8
  404. Codec ID/Info : UTF-8 Plain Text
  405. Duration : 30 min 39 s
  406. Bit rate : 76 b/s
  407. Count of elements : 582
  408. Stream size : 17.1 KiB (0%)
  409. Title : Português (Brasil)
  410. Language : Portuguese
  411. Default : No
  412. Forced : No

  413. Text #29
  414. ID : 31
  415. Format : UTF-8
  416. Codec ID : S_TEXT/UTF8
  417. Codec ID/Info : UTF-8 Plain Text
  418. Duration : 30 min 39 s
  419. Bit rate : 124 b/s
  420. Count of elements : 585
  421. Stream size : 28.0 KiB (0%)
  422. Title : Русский
  423. Language : Russian
  424. Default : No
  425. Forced : No

  426. Text #30
  427. ID : 32
  428. Format : UTF-8
  429. Codec ID : S_TEXT/UTF8
  430. Codec ID/Info : UTF-8 Plain Text
  431. Duration : 30 min 39 s
  432. Bit rate : 67 b/s
  433. Count of elements : 563
  434. Stream size : 15.2 KiB (0%)
  435. Title : Slovenčina
  436. Language : Slovak
  437. Default : No
  438. Forced : No

  439. Text #31
  440. ID : 33
  441. Format : UTF-8
  442. Codec ID : S_TEXT/UTF8
  443. Codec ID/Info : UTF-8 Plain Text
  444. Duration : 30 min 39 s
  445. Bit rate : 59 b/s
  446. Count of elements : 582
  447. Stream size : 13.3 KiB (0%)
  448. Title : slovenščina
  449. Language : Slovenian
  450. Default : No
  451. Forced : No

  452. Text #32
  453. ID : 34
  454. Format : UTF-8
  455. Codec ID : S_TEXT/UTF8
  456. Codec ID/Info : UTF-8 Plain Text
  457. Duration : 30 min 39 s
  458. Bit rate : 73 b/s
  459. Count of elements : 580
  460. Stream size : 16.5 KiB (0%)
  461. Title : Svenska
  462. Language : Swedish
  463. Default : No
  464. Forced : No

  465. Text #33
  466. ID : 35
  467. Format : UTF-8
  468. Codec ID : S_TEXT/UTF8
  469. Codec ID/Info : UTF-8 Plain Text
  470. Duration : 30 min 39 s
  471. Bit rate : 268 b/s
  472. Count of elements : 584
  473. Stream size : 60.2 KiB (0%)
  474. Title : தமிழ்
  475. Language : Tamil
  476. Default : No
  477. Forced : No

  478. Text #34
  479. ID : 36
  480. Format : UTF-8
  481. Codec ID : S_TEXT/UTF8
  482. Codec ID/Info : UTF-8 Plain Text
  483. Duration : 30 min 39 s
  484. Bit rate : 220 b/s
  485. Count of elements : 584
  486. Stream size : 49.5 KiB (0%)
  487. Title : తెలుగు
  488. Language : Telugu
  489. Default : No
  490. Forced : No

  491. Text #35
  492. ID : 37
  493. Format : UTF-8
  494. Codec ID : S_TEXT/UTF8
  495. Codec ID/Info : UTF-8 Plain Text
  496. Duration : 30 min 39 s
  497. Bit rate : 201 b/s
  498. Count of elements : 584
  499. Stream size : 45.1 KiB (0%)
  500. Title : ไทย
  501. Language : Thai
  502. Default : No
  503. Forced : No

  504. Text #36
  505. ID : 38
  506. Format : UTF-8
  507. Codec ID : S_TEXT/UTF8
  508. Codec ID/Info : UTF-8 Plain Text
  509. Duration : 30 min 39 s
  510. Bit rate : 81 b/s
  511. Count of elements : 582
  512. Stream size : 18.4 KiB (0%)
  513. Title : Türkçe
  514. Language : Turkish
  515. Default : No
  516. Forced : No

  517. Text #37
  518. ID : 39
  519. Format : UTF-8
  520. Codec ID : S_TEXT/UTF8
  521. Codec ID/Info : UTF-8 Plain Text
  522. Duration : 30 min 39 s
  523. Bit rate : 114 b/s
  524. Count of elements : 585
  525. Stream size : 25.8 KiB (0%)
  526. Title : українська
  527. Language : Ukrainian
  528. Default : No
  529. Forced : No

  530. Text #38
  531. ID : 40
  532. Format : UTF-8
  533. Codec ID : S_TEXT/UTF8
  534. Codec ID/Info : UTF-8 Plain Text
  535. Duration : 30 min 39 s
  536. Bit rate : 100 b/s
  537. Count of elements : 579
  538. Stream size : 22.6 KiB (0%)
  539. Title : Tiếng Việt
  540. Language : Vietnamese
  541. Default : No
  542. Forced : No

  543. Text #39
  544. ID : 41
  545. Format : UTF-8
  546. Codec ID : S_TEXT/UTF8
  547. Codec ID/Info : UTF-8 Plain Text
  548. Duration : 30 min 39 s
  549. Bit rate : 70 b/s
  550. Count of elements : 585
  551. Stream size : 15.9 KiB (0%)
  552. Title : 廣東話
  553. Language : Chinese
  554. Default : No
  555. Forced : No

  556. Text #40
  557. ID : 42
  558. Format : UTF-8
  559. Codec ID : S_TEXT/UTF8
  560. Codec ID/Info : UTF-8 Plain Text
  561. Duration : 30 min 39 s
  562. Bit rate : 69 b/s
  563. Count of elements : 585
  564. Stream size : 15.6 KiB (0%)
  565. Title : 中文(繁體)
  566. Language : Chinese
  567. Default : No
  568. Forced : No

  569. Text #41
  570. ID : 43
  571. Format : UTF-8
  572. Codec ID : S_TEXT/UTF8
  573. Codec ID/Info : UTF-8 Plain Text
  574. Duration : 30 min 39 s
  575. Bit rate : 76 b/s
  576. Count of elements : 584
  577. Stream size : 17.2 KiB (0%)
  578. Title : 中文(简体)
  579. Language : Chinese
  580. Default : No
  581. Forced : No
复制代码

乜都得教练/足球教练4k Ted.Lasso.S01E01.HDR.2160p.WEB.H265-4k美剧下载

足球教练4k Ted.Lasso.S01E01.HDR.2160p.WEB.H265【5.41 GB】
足球教练4k Ted.Lasso.S01E01.HDR.2160p.WEB.H265-SKEDADDLE[rartv].torrent
(27.57 KB)
回复

使用道具 举报

发烧友评论1

倒序浏览
assassinhk 发表于 7 天前 | 显示全部楼层
谢谢楼主,资源在这里找到了
回复 支持 反对

使用道具 举报

您需要登录后才可以回帖 登录 | 立即注册

本版积分规则

在线客服

在线客服

服务时间 9:00—18:00

返回顶部

关注微信公众号第一时间推送精彩

官方微信

手机访问

Hao4K影音

专注4k家庭影音,提供家庭影音社区,家庭影音器材库,影音问答平台,影音商城,服务千万家庭影音用户。

本站内容部分由用户自主分享和转载自互联网,转载目的在于传递更多信息,并不代表本网赞同其观点和对其真实性负责。

如有侵权、违反国家法律政策行为,请联系我们,我们会第一时间及时清除和处理!

举报反馈邮箱:admin@hao4k.cn

Copyright  2019-2020  Hao4K影音粤公网安备 44030302001429号    ( 粤ICP备18155646号-1 )|网站地图