专注4K家庭影音, 服务千万家庭影音发烧友!

[美剧] 鬼玩人 第三季4k Ash.Vs.Evil.Dead.S03.2160p.STAN.WEBRip.DDP5.1.x265-4k美剧下载

大红色 发表于 2020-8-18 10:44:58 | 显示全部楼层
电视剧频道
电视剧封面:
电视剧名: 鬼玩人 第三季4k
年  代: 2018  
国  家: 美国
类  别: 动作 喜剧 奇幻 
语  言: 英语
字  幕: 英文原版
上映日期: 2018-02-25
文件格式: mkv    
视频效果: 4K(3840x2160)    
资源大小: 28.74 GB
片  长: 30 分钟
导  演: 马克·贝斯利 / 丹尼尔·奈西姆 / 里根·霍尔 / 里克·雅各布森 / Diego Meza-Valdes / Andres Meza-Valdes
剧情简介: 第三季反英雄男主Ash Williams(Bruce Campbell)发现自己原来有个女儿Brandy Barr(Arielle Carver-O’Neill),另外虽然上季Ash已经把恶魔打回老家,但本季Ruby与她新朋友来到他面前,警告他黑恶势力仍然存在着。
鬼玩人之阿什斗鬼/鬼玩人 第三季4k Ash.Vs.Evil.Dead.S03.2160p.STAN.WEBRip.DDP5.1.x265-4k美剧信息
  1. Video
  2. ID : 1
  3. Format : HEVC
  4. Format/Info : High Efficiency Video Coding
  5. Format profile : Main@L5@High
  6. Codec ID : V_MPEGH/ISO/HEVC
  7. Duration : 29 min 36 s
  8. Bit rate : 14.3 Mb/s
  9. Width : 3 840 pixels
  10. Height : 2 160 pixels
  11. Display aspect ratio : 16:9
  12. Frame rate mode : Constant
  13. Frame rate : 23.976 (23976/1000) FPS
  14. Original frame rate : 23.976 (24000/1001) FPS
  15. Color space : YUV
  16. Chroma subsampling : 4:2:0
  17. Bit depth : 8 bits
  18. Bits/(Pixel*Frame) : 0.072
  19. Stream size : 2.96 GiB (97%)
  20. Default : Yes
  21. Forced : No

  22. Audio
  23. ID : 2
  24. Format : E-AC-3
  25. Format/Info : Enhanced AC-3
  26. Commercial name : Dolby Digital Plus
  27. Codec ID : A_EAC3
  28. Duration : 29 min 36 s
  29. Bit rate mode : Constant
  30. Bit rate : 448 kb/s
  31. Channel(s) : 6 channels
  32. Channel layout : L R C LFE Ls Rs
  33. Sampling rate : 48.0 kHz
  34. Frame rate : 31.250 FPS (1536 SPF)
  35. Compression mode : Lossy
  36. Stream size : 94.9 MiB (3%)
  37. Language : English
  38. Service kind : Complete Main
  39. Default : Yes
  40. Forced : No

  41. Text
  42. ID : 3
  43. Format : UTF-8
  44. Codec ID : S_TEXT/UTF8
  45. Codec ID/Info : UTF-8 Plain Text
  46. Duration : 29 min 22 s
  47. Bit rate : 70 b/s
  48. Count of elements : 645
  49. Stream size : 15.2 KiB (0%)
  50. Title : SDH
  51. Language : English
  52. Default : No
  53. Forced : No

  54. Menu
  55. 00:00:00.000 : en:Recap start
  56. 00:00:55.561 : en:Recap end
  57. 00:28:36.000 : en:Credits
复制代码

鬼玩人之阿什斗鬼/鬼玩人 第三季4k Ash.Vs.Evil.Dead.S03.2160p.STAN.WEBRip.DDP5.1.x265-4k美剧下载

鬼玩人 第三季4k Ash.Vs.Evil.Dead.S03.2160p.STAN.WEBRip.DDP5.1.x265【28.74 GB】
鬼玩人 第三季4k Ash.Vs.Evil.Dead.S03.2160p.STAN.WEBRip.DDP5.1.x265-NTb[rartv].torrent
(73.23 KB)

AI推荐主题

回复

使用道具 举报

发烧友评论1

倒序浏览
gymnastika 发表于 2020-9-10 09:52:50 | 显示全部楼层
这么好的片子,能不支持吗?
回复 支持 反对

使用道具 举报

您需要登录后才可以回帖 登录 | 立即注册

本版积分规则

在线客服

在线客服

服务时间 9:00—18:00

返回顶部

关注微信公众号第一时间推送精彩

官方微信

手机访问

Hao4K影音

专注4k家庭影音,提供家庭影音社区,家庭影音器材库,影音问答平台,影音商城,服务千万家庭影音用户。

本站内容部分由用户自主分享和转载自互联网,转载目的在于传递更多信息,并不代表本网赞同其观点和对其真实性负责。

如有侵权、违反国家法律政策行为,请联系我们,我们会第一时间及时清除和处理!

举报反馈邮箱:admin@hao4k.cn

Copyright  2019-2020  Hao4K影音粤公网安备 44030302001429号    ( 粤ICP备18155646号-1 )|网站地图