专注4K家庭影音, 服务千万家庭影音发烧友!

[美剧] 应召女友 第二季4k The.Girlfriend.Experience.S02.2160p.STAN.WEBRip.DDP5.1.x265-4k美剧下载

大红色 发表于 2020-8-18 11:11:10 | 显示全部楼层
电视剧频道
电视剧封面:
电视剧名: 应召女友 第二季4k
年  代: 2017  
国  家: -
类  别: 剧情 
语  言: -
字  幕: 英文原版
上映日期: 2017-11-05
文件格式: mkv    
视频效果: 4K(3840x2160)    
资源大小: 35.84 GB
片  长: 24 分钟
导  演: 洛奇·科里根 / 艾米·西米茨
剧情简介:  第二季的剧情由并行发展的两个故事组成,两部分均由Lodge Kerrigan和Amy Seimetz撰写、导演并制片,Jeff Cuban、Andrew Fierberg和Adele Romanski参与制片工作。第二季将聚焦全新的角色、全新的人际关系、全新的情节和全新的故事地点,但主题不会偏离「亲密关系的代价及其情感后果」。第二季共有14集。
应召女友 第二季4k The.Girlfriend.Experience.S02.2160p.STAN.WEBRip.DDP5.1.x265-4k美剧信息
  1. Video
  2. ID : 1
  3. Format : HEVC
  4. Format/Info : High Efficiency Video Coding
  5. Format profile : Main@L5@High
  6. Codec ID : V_MPEGH/ISO/HEVC
  7. Duration : 29 min 26 s
  8. Bit rate : 14.2 Mb/s
  9. Width : 3 840 pixels
  10. Height : 2 160 pixels
  11. Display aspect ratio : 16:9
  12. Frame rate mode : Constant
  13. Frame rate : 23.976 (24000/1001) FPS
  14. Color space : YUV
  15. Chroma subsampling : 4:2:0
  16. Bit depth : 8 bits
  17. Bits/(Pixel*Frame) : 0.072
  18. Stream size : 2.93 GiB (97%)
  19. Default : Yes
  20. Forced : No

  21. Audio
  22. ID : 2
  23. Format : E-AC-3
  24. Format/Info : Enhanced AC-3
  25. Commercial name : Dolby Digital Plus
  26. Codec ID : A_EAC3
  27. Duration : 29 min 26 s
  28. Bit rate mode : Constant
  29. Bit rate : 448 kb/s
  30. Channel(s) : 6 channels
  31. Channel layout : L R C LFE Ls Rs
  32. Sampling rate : 48.0 kHz
  33. Frame rate : 31.250 FPS (1536 SPF)
  34. Compression mode : Lossy
  35. Stream size : 94.4 MiB (3%)
  36. Language : English
  37. Service kind : Complete Main
  38. Default : Yes
  39. Forced : No

  40. Text
  41. ID : 3
  42. Format : UTF-8
  43. Codec ID : S_TEXT/UTF8
  44. Codec ID/Info : UTF-8 Plain Text
  45. Duration : 27 min 15 s
  46. Bit rate : 63 b/s
  47. Count of elements : 430
  48. Stream size : 12.7 KiB (0%)
  49. Title : SDH
  50. Language : English
  51. Default : No
  52. Forced : No

  53. Menu
  54. 00:00:00.000 : en:Recap start
  55. 00:00:51.000 : en:Recap end
  56. 00:27:50.000 : en:Credits
复制代码

应召女友 第二季4k The.Girlfriend.Experience.S02.2160p.STAN.WEBRip.DDP5.1.x265-4k美剧下载

应召女友 第二季4k The.Girlfriend.Experience.S02.2160p.STAN.WEBRip.DDP5.1.x265【35.84 GB】
应召女友 第二季4k The.Girlfriend.Experience.S02.2160p.STAN.WEBRip.DDP5.1.x265-NT.torrent
(91.49 KB)

AI推荐主题

回复

使用道具 举报

发烧友评论4

倒序浏览
bluebay999 发表于 2020-8-23 08:06:01 | 显示全部楼层
网上找的字幕都不匹配,调整了时间轴,正片部分没有问题

The.Girlfriend.Experience.S02.rar

247.72 KB

The.Girlfriend.Experience.S02

回复 支持 2 反对 0

使用道具 举报

xndsh 发表于 2020-9-13 21:33:45 | 显示全部楼层
bluebay999 发表于 2020-8-23 08:06
网上找的字幕都不匹配,调整了时间轴,正片部分没有问题

够厉害,真可谓及时雨了,谢谢!!
回复 支持 反对

使用道具 举报

bluebay999 发表于 2020-8-21 01:26:40 | 显示全部楼层
可惜了无字幕
回复 支持 反对

使用道具 举报

您需要登录后才可以回帖 登录 | 立即注册

本版积分规则

在线客服

在线客服

服务时间 9:00—18:00

返回顶部

关注微信公众号第一时间推送精彩

官方微信

手机访问

Hao4K影音

专注4k家庭影音,提供家庭影音社区,家庭影音器材库,影音问答平台,影音商城,服务千万家庭影音用户。

本站内容部分由用户自主分享和转载自互联网,转载目的在于传递更多信息,并不代表本网赞同其观点和对其真实性负责。

如有侵权、违反国家法律政策行为,请联系我们,我们会第一时间及时清除和处理!

举报反馈邮箱:admin@hao4k.cn

Copyright  2019-2020  Hao4K影音粤公网安备 44030302001429号    ( 粤ICP备18155646号-1 )|网站地图