专注4K家庭影音, 服务千万家庭影音发烧友!

理查德·朱维尔的哀歌4k Richard Jewell (2019) 2160p HDR 5.1 x265 10bit Phun Psyz-4k电影下载

碧池 发表于 2020-8-23 21:03:51 | 显示全部楼层
李察朱维尔:惊世疑案(港) / 李察朱威尔事件(台) / 美国噩梦 / 理查德·朱厄尔 / 理查德·朱厄尔的悲歌 / 理查德·朱厄尔的歌谣 / 理查德·朱维尔的歌谣 / 理查德·杰威尔的歌谣 / The Ballad of Richard Jewell / American Nightmare / American Nightmare: The Ballad of Richard Jewell/理查德·朱维尔的哀歌4k Richard Jewell (2019) 2160p HDR 5.1 x265 10bit Phun Psyz-4k电影信息
  1. Video
  2. ID : 1
  3. Format : HEVC
  4. Format/Info : High Efficiency Video Coding
  5. Codec ID : V_MPEGH/ISO/HEVC
  6. Duration : 2 h 10 min
  7. Bit rate : 3 248 kb/s
  8. Width : 3 840 pixels
  9. Height : 1 608 pixels
  10. Display aspect ratio : 2.40:1
  11. Frame rate mode : Constant
  12. Frame rate : 23.976 (24000/1001) FPS
  13. Color space : YUV
  14. Chroma subsampling : 4:2:0
  15. Bit depth : 10 bits
  16. Bits/(Pixel*Frame) : 0.022
  17. Stream size : 2.97 GiB (89%)
  18. Writing library : x265 2.9:[Windows][GCC 7.1.0][64 bit] 10bit
  19. Color range : Full
  20. Color primaries : BT.2020
  21. Transfer characteristics : PQ
  22. Matrix coefficients : BT.2020 non-constant

  23. Audio
  24. ID : 2
  25. Format : AC-3
  26. Format/Info : Audio Coding 3
  27. Commercial name : Dolby Digital
  28. Codec ID : A_AC3
  29. Duration : 2 h 10 min
  30. Bit rate mode : Constant
  31. Bit rate : 320 kb/s
  32. Channel(s) : 6 channels
  33. Channel layout : L R C LFE Ls Rs
  34. Sampling rate : 48.0 kHz
  35. Frame rate : 31.250 FPS (1536 SPF)
  36. Compression mode : Lossy
  37. Delay relative to video : -5 ms
  38. Stream size : 300 MiB (9%)
  39. Title : Surround
  40. Language : English

  41. Text
  42. Language : French
  43. Language : French
  44. Default : No
  45. Forced : No
复制代码

李察朱维尔:惊世疑案(港) / 李察朱威尔事件(台) / 美国噩梦 / 理查德·朱厄尔 / 理查德·朱厄尔的悲歌 / 理查德·朱厄尔的歌谣 / 理查德·朱维尔的歌谣 / 理查德·杰威尔的歌谣 / The Ballad of Richard Jewell / American Nightmare / American Nightmare: The Ballad of Richard Jewell/理查德·朱维尔的哀歌4k Richard Jewell (2019) 2160p HDR 5.1 x265 10bit Phun Psyz-4k电影下载

理查德·朱维尔的哀歌4k Richard Jewell (2019) 2160p HDR 5.1 x265 10bit Phun Psyz【3.3 GB】
理查德·朱维尔的哀歌4k电影下载.txt
(122 Bytes)
理查德·朱维尔的哀歌.jpg
回复

使用道具 举报

发烧友评论1

倒序浏览
18520199909 发表于 2020-8-30 10:30:17 Hao4K手机版 | 显示全部楼层
看过了,还可以
回复 支持 反对

使用道具 举报

您需要登录后才可以回帖 登录 | 立即注册

本版积分规则


0关注

13粉丝

56帖子

热门图文主题
热门主题
社区广告

在线客服

在线客服

服务时间 9:00—18:00

返回顶部

关注微信公众号第一时间推送精彩

官方微信

手机访问

Hao4K影音

专注4k家庭影音,提供家庭影音社区,家庭影音器材库,影音问答平台,影音商城,服务千万家庭影音用户。

本站内容部分由用户自主分享和转载自互联网,转载目的在于传递更多信息,并不代表本网赞同其观点和对其真实性负责。

如有侵权、违反国家法律政策行为,请联系我们,我们会第一时间及时清除和处理!

举报反馈邮箱:admin@hao4k.cn

Copyright  2019-2020  Hao4K影音粤公网安备 44030302001429号    ( 粤ICP备18155646号-1 )|网站地图