专注4K家庭影音, 服务千万家庭影音发烧友!

[美剧] 路西法 第五季4k Lucifer.S05.2160p.NF.WEBRip.DDP5.1.x265美剧

大红色 发表于 2020-8-27 16:22:40 | 显示全部楼层
电视剧频道
电视剧封面:
电视剧名: 路西法 第五季4k
年  代: 2020  
国  家: 美国
类  别: 犯罪 剧情 奇幻 
语  言: 英语
字  幕: 英文原版
上映日期: 2020-08-21
文件格式: mkv    
视频效果: 4K(3840x2160)    
资源大小: 77.24 GB
片  长: 45 分钟
导  演: 南森·霍普 / 卡伦·卡薇欧拉 / 格雷格·毕曼 / 舍温·希拉蒂
剧情简介: 故事讲述无聊且郁郁寡欢的地狱之主路西法放弃了他的宝座和王国,搬到了华美绚丽、熠熠生辉的洛杉矶,与洛杉矶警局并肩作战,共同惩治犯罪。
魔鬼神探(港/台)/路西法 第五季4k Lucifer.S05.2160p.NF.WEBRip.DDP5.1.x265美剧信息
  1. Video
  2. ID : 1
  3. Format : HEVC
  4. Format/Info : High Efficiency Video Coding
  5. Format profile : Main 10@L5.1@High
  6. Codec ID : V_MPEGH/ISO/HEVC
  7. Duration : 55 min 35 s
  8. Bit rate : 26.3 Mb/s
  9. Width : 3 840 pixels
  10. Height : 2 160 pixels
  11. Display aspect ratio : 16:9
  12. Frame rate mode : Constant
  13. Frame rate : 23.976 (24000/1001) FPS
  14. Color space : YUV
  15. Chroma subsampling : 4:2:0
  16. Bit depth : 10 bits
  17. Bits/(Pixel*Frame) : 0.132
  18. Stream size : 10.2 GiB (98%)
  19. Writing library : x265 3.0_Au+4-dcbec33bfb0f:[Windows][GCC 8.2.1][64 bit] 10bit
  20. Encoding settings : cpuid=1111039 / frame-threads=4 / numa-pools=28 / wpp / no-pmode / no-pme / no-psnr / no-ssim / log-level=2 / input-csp=1 / input-res=3840x2160 / interlace=0 / total-frames=79968 / level-idc=51 / high-tier=1 / uhd-bd=0 / ref=5 / no-allow-non-conformance / repeat-headers / annexb / aud / hrd / info / hash=0 / no-temporal-layers / open-gop / min-keyint=23 / keyint=250 / gop-lookahead=0 / bframes=8 / b-adapt=2 / b-pyramid / bframe-bias=0 / rc-lookahead=40 / lookahead-slices=8 / scenecut=40 / radl=0 / no-splice / no-intra-refresh / ctu=64 / min-cu-size=8 / no-rect / no-amp / max-tu-size=32 / tu-inter-depth=4 / tu-intra-depth=4 / limit-tu=4 / rdoq-level=0 / dynamic-rd=0.00 / no-ssim-rd / signhide / no-tskip / nr-intra=0 / nr-inter=0 / no-constrained-intra / strong-intra-smoothing / max-merge=4 / limit-refs=3 / no-limit-modes / me=1 / subme=5 / merange=57 / temporal-mvp / weightp / weightb / no-analyze-src-pics / deblock=-3:-3 / no-sao / no-sao-non-deblock / rd=4 / no-early-skip / rskip / no-fast-intra / no-tskip-fast / no-cu-lossless / b-intra / no-splitrd-skip / rdpenalty=0 / psy-rd=2.00 / psy-rdoq=0.00 / no-rd-refine / no-lossless / cbqpoffs=0 / crqpoffs=0 / rc=crf / crf=19.0 / qcomp=0.60 / qpstep=4 / stats-write=0 / stats-read=0 / vbv-maxrate=160000 / vbv-bufsize=160000 / vbv-init=0.9 / crf-max=0.0 / crf-min=0.0 / ipratio=1.30 / pbratio=1.20 / aq-mode=1 / aq-strength=0.85 / no-cutree / zone-count=0 / no-strict-cbr / qg-size=32 / no-rc-grain / qpmax=69 / qpmin=0 / no-const-vbv / sar=1 / overscan=0 / videoformat=5 / range=0 / colorprim=1 / transfer=1 / colormatrix=1 / chromaloc=0 / display-window=0 / max-cll=0,0 / min-luma=0 / max-luma=1023 / log2-max-poc-lsb=8 / vui-timing-info / vui-hrd-info / slices=1 / no-opt-qp-pps / no-opt-ref-list-length-pps / no-multi-pass-opt-rps / scenecut-bias=0.05 / no-opt-cu-delta-qp / no-aq-motion / no-hdr / no-hdr-opt / no-dhdr10-opt / no-idr-recovery-sei / analysis-reuse-level=5 / scale-factor=0 / refine-intra=0 / refine-inter=0 / refine-mv=0 / refine-ctu-distortion=0 / no-limit-sao / ctu-info=0 / no-lowpass-dct / refine-analysis-type=0 / copy-pic=1 / max-ausize-factor=1.0 / no-dynamic-refine / no-single-sei / no-hevc-aq / qp-adaptation-range=1.00
  21. Default : Yes
  22. Forced : No
  23. Color range : Limited
  24. Color primaries : BT.709
  25. Transfer characteristics : BT.709
  26. Matrix coefficients : BT.709

  27. Audio
  28. ID : 2
  29. Format : E-AC-3
  30. Format/Info : Enhanced AC-3
  31. Commercial name : Dolby Digital Plus
  32. Codec ID : A_EAC3
  33. Duration : 55 min 35 s
  34. Bit rate mode : Constant
  35. Bit rate : 640 kb/s
  36. Channel(s) : 6 channels
  37. Channel layout : L R C LFE Ls Rs
  38. Sampling rate : 48.0 kHz
  39. Frame rate : 31.250 FPS (1536 SPF)
  40. Compression mode : Lossy
  41. Stream size : 254 MiB (2%)
  42. Title : English
  43. Language : English
  44. Service kind : Complete Main
  45. Default : Yes
  46. Forced : No

  47. Text #1
  48. ID : 3
  49. Format : UTF-8
  50. Codec ID : S_TEXT/UTF8
  51. Codec ID/Info : UTF-8 Plain Text
  52. Duration : 54 min 14 s
  53. Bit rate : 89 b/s
  54. Count of elements : 1187
  55. Stream size : 35.4 KiB (0%)
  56. Title : SDH
  57. Language : English
  58. Default : No
  59. Forced : No

  60. Text #2
  61. ID : 4
  62. Format : UTF-8
  63. Codec ID : S_TEXT/UTF8
  64. Codec ID/Info : UTF-8 Plain Text
  65. Duration : 55 min 13 s
  66. Bit rate : 128 b/s
  67. Count of elements : 1012
  68. Stream size : 52.2 KiB (0%)
  69. Language : Arabic
  70. Default : No
  71. Forced : No
复制代码

魔鬼神探(港/台)/路西法 第五季4k Lucifer.S05.2160p.NF.WEBRip.DDP5.1.x265美剧信息
路西法 第五季4k Lucifer.S05.2160p.NF.WEBRip.DDP5.1.x265【77.24 GB】
路西法 第五季4k Lucifer.S05.2160p.NF.WEBRip.DDP5.1.x265-NTb[rartv].torrent
(194.33 KB)

AI推荐主题

回复

使用道具 举报

发烧友评论4

倒序浏览
捡到的小月亮 发表于 2020-9-12 22:25:47 | 显示全部楼层
真的太惊喜了,这部剧居然回归了,我泪奔!
回复 支持 反对

使用道具 举报

wazhi0202 发表于 2020-9-4 16:18:08 | 显示全部楼层
这个有多少集
回复 支持 反对

使用道具 举报

大酉 发表于 2020-8-28 22:23:58 Hao4K手机版 | 显示全部楼层
后面没有源了,下不动了
回复 支持 反对

使用道具 举报

您需要登录后才可以回帖 登录 | 立即注册

本版积分规则

在线客服

在线客服

服务时间 9:00—18:00

返回顶部

关注微信公众号第一时间推送精彩

官方微信

手机访问

Hao4K影音

专注4k家庭影音,提供家庭影音社区,家庭影音器材库,影音问答平台,影音商城,服务千万家庭影音用户。

本站内容部分由用户自主分享和转载自互联网,转载目的在于传递更多信息,并不代表本网赞同其观点和对其真实性负责。

如有侵权、违反国家法律政策行为,请联系我们,我们会第一时间及时清除和处理!

举报反馈邮箱:admin@hao4k.cn

Copyright  2019-2020  Hao4K影音粤公网安备 44030302001429号    ( 粤ICP备18155646号-1 )|网站地图