专注4K家庭影音, 服务千万家庭影音发烧友!

[待验证4K资源] 布鲁克林秘案4k Motherless Brooklyn 2019 2160p HDR 5.1 x265 10bit-4k电影下载

碧池 发表于 2020-8-29 11:52:53 | 显示全部楼层
电影频道
电影封面:
片  名: 布鲁克林秘案4k
电影分类: 犯罪 剧情 
国  家: 美国 
年  代: 2018年
分 辨 率: 4K(3840x2160)
电影格式: MKV|REMUX 
画质标准: HDR 
音质编码: Dolby Digital Audio 
电影声道: 5.1声道 
帧数/FPS: 23.976 FPS
电影语言: 英文原版 
资源大小: 3.7 GB
导  演: 爱德华·诺顿
豆瓣评分: 7.0 分
中文字幕: /thread-49327-1-1.html
剧情简介: 故事围绕1950年代纽约私人侦探莱昂内尔·“布鲁克林”·埃斯罗格展开,面对唯一导师兼挚友弗兰克·明纳离奇遇害,身患抽动秽语综合征的孤儿莱昂内尔不得不上下求索,独自深入哈林爵士天地和布鲁克林穷街陋巷,竭力探寻这起谋杀背后的秘密和真相。
  影片由爱德华·诺顿执导、编剧、制片并主演,于1950年代纽约大转型背景下重新演绎乔纳森·利瑟姆同名小说《布鲁克林孤儿》中各色当代人物。
无母之城(港) / 布鲁克林孤儿(台) / 布鲁克林的流浪儿/布鲁克林秘案4k Motherless Brooklyn 2019 2160p HDR 5.1 x265 10bit-4k电影信息
  1. Video
  2. ID : 1
  3. Format : HEVC
  4. Format/Info : High Efficiency Video Coding
  5. Codec ID : V_MPEGH/ISO/HEVC
  6. Duration : 2 h 24 min
  7. Bit rate : 3 232 kb/s
  8. Width : 3 840 pixels
  9. Height : 2 072 pixels
  10. Display aspect ratio : 1.85:1
  11. Frame rate mode : Constant
  12. Frame rate : 23.976 (24000/1001) FPS
  13. Color space : YUV
  14. Chroma subsampling : 4:2:0
  15. Bit depth : 10 bits
  16. Bits/(Pixel*Frame) : 0.017
  17. Stream size : 3.26 GiB (89%)
  18. Writing library : x265 2.9:[Windows][GCC 7.1.0][64 bit] 10bit
  19. Color range : Full
  20. Color primaries : BT.2020
  21. Transfer characteristics : PQ
  22. Matrix coefficients : BT.2020 non-constant
  23. Audio
  24. ID : 2
  25. Format : AC-3
  26. Format/Info : Audio Coding 3
  27. Commercial name : Dolby Digital
  28. Codec ID : A_AC3
  29. Duration : 2 h 24 min
  30. Bit rate mode : Constant
  31. Bit rate : 320 kb/s
  32. Channel(s) : 6 channels
  33. Channel layout : L R C LFE Ls Rs
  34. Sampling rate : 48.0 kHz
  35. Frame rate : 31.250 FPS (1536 SPF)
  36. Compression mode : Lossy
  37. Delay relative to video : 3 ms
  38. Stream size : 330 MiB (9%)
  39. Title : Surround
  40. Language : English
  41. Service kind : Complete Main
  42. Default : Yes
  43. Forced : No
复制代码

无母之城(港) / 布鲁克林孤儿(台) / 布鲁克林的流浪儿/布鲁克林秘案4k Motherless Brooklyn 2019 2160p HDR 5.1 x265 10bit-4k电影下载

布鲁克林秘案4k Motherless Brooklyn 2019 2160p HDR 5.1 x265 10bit【3.7 GB】
布鲁克林秘案4k 电影.txt
(108 Bytes)
回复

使用道具 举报

发烧友评论4

倒序浏览
yulinling72 发表于 2020-8-30 10:12:49 | 显示全部楼层
感谢分享,顶一个
回复 支持 反对

使用道具 举报

dk30129 发表于 2020-8-30 09:49:10 | 显示全部楼层
谢谢分享,顶你!
回复 支持 反对

使用道具 举报

您需要登录后才可以回帖 登录 | 立即注册

本版积分规则


0关注

12粉丝

56帖子

热门图文主题
热门主题
社区广告

在线客服

在线客服

服务时间 9:00—18:00

返回顶部

关注微信公众号第一时间推送精彩

官方微信

手机访问

Hao4K影音

专注4k家庭影音,提供家庭影音社区,家庭影音器材库,影音问答平台,影音商城,服务千万家庭影音用户。

本站内容部分由用户自主分享和转载自互联网,转载目的在于传递更多信息,并不代表本网赞同其观点和对其真实性负责。

如有侵权、违反国家法律政策行为,请联系我们,我们会第一时间及时清除和处理!

举报反馈邮箱:admin@hao4k.cn

Copyright  2019-2020  Hao4K影音粤公网安备 44030302001429号    ( 粤ICP备18155646号-1 )|网站地图