专注4K家庭影音, 服务千万家庭影音发烧友!

[美剧] 萤火虫4k Firefly 2002 Season 01 S01 + Featurettes 2160p BluRay x265 HEVC AI 10bit AAC 5.1

碧池 发表于 2020-8-30 17:42:54 | 显示全部楼层
电视剧频道
电视剧封面:
电视剧名: 萤火虫4k
年  代: 00年代  
国  家: 美国
类  别: 科幻 剧情 
语  言: 英语
字  幕: 英文原版
上映日期: 2002-09-20
文件格式: mkv    
视频效果: 4K(3840x2160)    
资源大小: 21.2 GB
片  长: 42 分钟
导  演: 乔斯·韦登
剧情简介: 故事发生在遥远的未来世界,此时,人类对于太空的勘探已经发展到了成熟的阶段,梅尔(内森·菲利安 Nathan Fillion 饰)是太空船“宁静号”的船长,每一日,梅尔都驾驶着他的“家”,穿梭在浩瀚的宇宙之中。
  宁静号拥有九名乘客,这九人地位悬殊,个性迥异,每一个人都有着一段不可告人的灰暗往事,而他们脱离陆地登上宁静号,亦有着各自不同的理由。九人唯一的共同点在于,他们都是地上世界中的“刺头”。为了维持生计,宁静号接纳一切能够赚钱的任务,其中甚至有些看起来并不是那么合法,与此同时,梅尔船长亦要带领他的船员们设法逃脱联邦政府的追踪。
宁静号/萤火虫4k Firefly 2002 Season 01 S01 + Featurettes 2160p BluRay x265 HEVC AI 10bit AAC 5.1-4k美剧信息
  1. Video
  2. ID                                       : 1
  3. Format                                   : HEVC
  4. Format/Info                              : High Efficiency Video Coding
  5. Codec ID                                 : V_MPEGH/ISO/HEVC
  6. Duration                                 : 1 h 26 min
  7. Bit rate                                 : 3 999 kb/s
  8. Width                                    : 3 840 pixels
  9. Height                                   : 2 160 pixels
  10. Display aspect ratio                     : 16:9
  11. Frame rate mode                          : Constant
  12. Frame rate                               : 23.976 (24000/1001) FPS
  13. Color space                              : YUV
  14. Chroma subsampling                       : 4:2:0
  15. Bit depth                                : 10 bits
  16. Bits/(Pixel*Frame)                       : 0.020
  17. Stream size                              : 2.42 GiB (88%)
  18. Writing library                          : x265 3.2+9-971180b100f8:[Windows][GCC 9.2.0][64 bit] 10bit
  19. Encoding settings                        : cpuid=1111039 / frame-threads=3 / numa-pools=12 / wpp / no-pmode / no-pme / no-psnr / ssim / log-level=2 / input-csp=1 / input-res=3840x2160 / interlace=0 / total-frames=124728 / level-idc=0 / high-tier=1 / uhd-bd=0 / ref=4 / no-allow-non-conformance / no-repeat-headers / annexb / no-aud / no-hrd / info / hash=0 / no-temporal-layers / open-gop / min-keyint=23 / keyint=250 / gop-lookahead=0 / bframes=8 / b-adapt=2 / b-pyramid / bframe-bias=40 / rc-lookahead=80 / lookahead-slices=4 / scenecut=40 / radl=0 / no-splice / no-intra-refresh / ctu=64 / min-cu-size=8 / rect / no-amp / max-tu-size=32 / tu-inter-depth=1 / tu-intra-depth=1 / limit-tu=0 / rdoq-level=2 / dynamic-rd=0.00 / ssim-rd / signhide / no-tskip / nr-intra=0 / nr-inter=0 / constrained-intra / strong-intra-smoothing / max-merge=3 / limit-refs=3 / limit-modes / me=3 / subme=3 / merange=57 / temporal-mvp / no-frame-dup / no-hme / weightp / no-weightb / no-analyze-src-pics / deblock=0:0 / sao / no-sao-non-deblock / rd=4 / selective-sao=4 / early-skip / rskip / no-fast-intra / no-tskip-fast / no-cu-lossless / no-b-intra / splitrd-skip / rdpenalty=0 / psy-rd=2.45 / psy-rdoq=1.50 / no-rd-refine / no-lossless / cbqpoffs=0 / crqpoffs=0 / rc=abr / bitrate=4000 / qcomp=0.60 / qpstep=4 / stats-write=0 / stats-read=2 / cplxblur=20.0 / qblur=0.5 / ipratio=1.40 / pbratio=1.30 / aq-mode=3 / aq-strength=0.40 / cutree / zone-count=0 / no-strict-cbr / qg-size=32 / no-rc-grain / qpmax=69 / qpmin=0 / no-const-vbv / sar=0 / overscan=0 / videoformat=5 / range=0 / colorprim=2 / transfer=2 / colormatrix=2 / chromaloc=0 / display-window=0 / cll=0,0 / min-luma=0 / max-luma=1023 / log2-max-poc-lsb=8 / vui-timing-info / vui-hrd-info / slices=1 / no-opt-qp-pps / no-opt-ref-list-length-pps / multi-pass-opt-rps / scenecut-bias=0.05 / no-opt-cu-delta-qp / no-aq-motion / no-hdr / no-hdr-opt / no-dhdr10-opt / no-idr-recovery-sei / analysis-load / analysis-reuse-level=10 / scale-factor=0 / refine-intra=0 / refine-inter=0 / refine-mv=1 / refine-ctu-distortion=0 / limit-sao / ctu-info=0 / no-lowpass-dct / refine-analysis-type=0 / copy-pic=1 / max-ausize-factor=1.0 / no-dynamic-refine / no-single-sei / no-hevc-aq / no-svt / no-field / qp-adaptation-range=1.00
  20. Default                                  : Yes
  21. Forced                                   : No

  22. Audio #1
  23. ID                                       : 2
  24. Format                                   : AAC
  25. Format/Info                              : Advanced Audio Codec
  26. Format profile                           : LC
  27. Codec ID                                 : A_AAC
  28. Duration                                 : 1 h 26 min
  29. Bit rate                                 : 215 kb/s
  30. Channel(s)                               : 6 channels
  31. Channel positions                        : Front: L C R, Side: L R, LFE
  32. Sampling rate                            : 48.0 kHz
  33. Frame rate                               : 46.875 FPS (1024 spf)
  34. Compression mode                         : Lossy
  35. Delay relative to video                  : 9 ms
  36. Stream size                              : 134 MiB (5%)
  37. Language                                 : English
  38. Default                                  : No
  39. Forced                                   : No

  40. Audio #2
  41. ID                                       : 3
  42. Format                                   : AAC
  43. Format/Info                              : Advanced Audio Codec
  44. Format profile                           : LC
  45. Codec ID                                 : A_AAC
  46. Duration                                 : 1 h 26 min
  47. Bit rate                                 : 82.0 kb/s
  48. Channel(s)                               : 2 channels
  49. Channel positions                        : Front: L R
  50. Sampling rate                            : 48.0 kHz
  51. Frame rate                               : 46.875 FPS (1024 spf)
  52. Compression mode                         : Lossy
  53. Delay relative to video                  : 9 ms
  54. Stream size                              : 50.8 MiB (2%)
  55. Language                                 : German
  56. Default                                  : No
  57. Forced                                   : No

  58. Audio #3
  59. ID                                       : 4
  60. Format                                   : AAC
  61. Format/Info                              : Advanced Audio Codec
  62. Format profile                           : LC
  63. Codec ID                                 : A_AAC
  64. Duration                                 : 1 h 26 min
  65. Bit rate                                 : 76.5 kb/s
  66. Channel(s)                               : 2 channels
  67. Channel positions                        : Front: L R
  68. Sampling rate                            : 48.0 kHz
  69. Frame rate                               : 46.875 FPS (1024 spf)
  70. Compression mode                         : Lossy
  71. Delay relative to video                  : 9 ms
  72. Stream size                              : 47.4 MiB (2%)
  73. Language                                 : French
  74. Default                                  : No
  75. Forced                                   : No

  76. Audio #4
  77. ID                                       : 5
  78. Format                                   : AAC
  79. Format/Info                              : Advanced Audio Codec
  80. Format profile                           : LC
  81. Codec ID                                 : A_AAC
  82. Duration                                 : 1 h 26 min
  83. Bit rate                                 : 78.6 kb/s
  84. Channel(s)                               : 2 channels
  85. Channel positions                        : Front: L R
  86. Sampling rate                            : 48.0 kHz
  87. Frame rate                               : 46.875 FPS (1024 spf)
  88. Compression mode                         : Lossy
  89. Delay relative to video                  : 9 ms
  90. Stream size                              : 48.7 MiB (2%)
  91. Language                                 : Spanish
  92. Default                                  : No
  93. Forced                                   : No

  94. Audio #5
  95. ID                                       : 12
  96. Format                                   : AAC
  97. Format/Info                              : Advanced Audio Codec
  98. Format profile                           : HE-AAC / LC
  99. Codec ID                                 : A_AAC
  100. Duration                                 : 1 h 26 min
  101. Bit rate                                 : 45.1 kb/s
  102. Channel(s)                               : 2 channels
  103. Channel positions                        : Front: L R
  104. Sampling rate                            : 48.0 kHz / 24.0 kHz
  105. Frame rate                               : 23.438 FPS (1024 spf)
  106. Compression mode                         : Lossy
  107. Delay relative to video                  : 31 ms
  108. Stream size                              : 28.0 MiB (1%)
  109. Title                                    : Commentary by creator Joss Whedon and star Nathan Fillion
  110. Language                                 : English
  111. Default                                  : No
  112. Forced                                   : No

  113. Subtitle #1
  114. ID                                       : 6
  115. Format                                   : VobSub
  116. Muxing mode                              : zlib
  117. Codec ID                                 : S_VOBSUB
  118. Codec ID/Info                            : Picture based subtitle format used on DVDs
  119. Duration                                 : 1 h 26 min
  120. Bit rate                                 : 12.7 kb/s
  121. Count of elements                        : 1166
  122. Stream size                              : 7.86 MiB (0%)
  123. Language                                 : English
  124. Default                                  : No
  125. Forced                                   : No

  126. Subtitle #2
  127. ID                                       : 7
  128. Format                                   : VobSub
  129. Muxing mode                              : zlib
  130. Codec ID                                 : S_VOBSUB
  131. Codec ID/Info                            : Picture based subtitle format used on DVDs
  132. Duration                                 : 1 h 25 min
  133. Bit rate                                 : 10.8 kb/s
  134. Count of elements                        : 1017
  135. Stream size                              : 6.61 MiB (0%)
  136. Language                                 : Dutch
  137. Default                                  : No
  138. Forced                                   : No

  139. Subtitle #3
  140. ID                                       : 8
  141. Format                                   : VobSub
  142. Muxing mode                              : zlib
  143. Codec ID                                 : S_VOBSUB
  144. Codec ID/Info                            : Picture based subtitle format used on DVDs
  145. Duration                                 : 1 h 18 min
  146. Bit rate                                 : 82 b/s
  147. Count of elements                        : 8
  148. Stream size                              : 47.8 KiB (0%)
  149. Language                                 : French
  150. Default                                  : No
  151. Forced                                   : No

  152. Subtitle #4
  153. ID                                       : 9
  154. Format                                   : VobSub
  155. Muxing mode                              : zlib
  156. Codec ID                                 : S_VOBSUB
  157. Codec ID/Info                            : Picture based subtitle format used on DVDs
  158. Duration                                 : 1 h 18 min
  159. Bit rate                                 : 27 b/s
  160. Count of elements                        : 4
  161. Stream size                              : 15.6 KiB (0%)
  162. Language                                 : German
  163. Default                                  : No
  164. Forced                                   : No

  165. Subtitle #5
  166. ID                                       : 10
  167. Format                                   : VobSub
  168. Muxing mode                              : zlib
  169. Codec ID                                 : S_VOBSUB
  170. Codec ID/Info                            : Picture based subtitle format used on DVDs
  171. Duration                                 : 1 h 24 min
  172. Bit rate                                 : 10.7 kb/s
  173. Count of elements                        : 1093
  174. Stream size                              : 6.49 MiB (0%)
  175. Language                                 : Spanish
  176. Default                                  : No
  177. Forced                                   : No

  178. Subtitle #6
  179. ID                                       : 11
  180. Format                                   : VobSub
  181. Muxing mode                              : zlib
  182. Codec ID                                 : S_VOBSUB
  183. Codec ID/Info                            : Picture based subtitle format used on DVDs
  184. Duration                                 : 8 min 42 s
  185. Bit rate                                 : 95 b/s
  186. Count of elements                        : 2
  187. Stream size                              : 6.08 KiB (0%)
  188. Language                                 : Spanish
  189. Default                                  : No
  190. Forced                                   : No

  191. Menu
  192. 00:00:00.000                             : en:Chapter 01
  193. 00:05:06.514                             : en:Chapter 02
  194. 00:10:58.783                             : en:Chapter 03
  195. 00:11:50.710                             : en:Chapter 04
  196. 00:16:46.797                             : en:Chapter 05
  197. 00:22:06.825                             : en:Chapter 06
  198. 00:27:37.989                             : en:Chapter 07
  199. 00:34:20.099                             : en:Chapter 08
  200. 00:36:04.495                             : en:Chapter 09
  201. 00:42:12.488                             : en:Chapter 10
  202. 00:47:43.902                             : en:Chapter 11
  203. 00:50:26.523                             : en:Chapter 12
  204. 00:53:00.302                             : en:Chapter 13
  205. 00:56:50.990                             : en:Chapter 14
  206. 00:58:55.657                             : en:Chapter 15
  207. 01:01:39.987                             : en:Chapter 16
  208. 01:04:26.863                             : en:Chapter 17
  209. 01:13:22.940                             : en:Chapter 18
  210. 01:20:39.668                             : en:Chapter 19
  211. 01:25:48.476                             : en:Chapter 20
  212. 01:26:41.196                             : en:Chapter 21
复制代码

宁静号/萤火虫4k Firefly 2002 Season 01 S01 + Featurettes 2160p BluRay x265 HEVC AI 10bit AAC 5.1-4k美剧下载

萤火虫4k Firefly 2002 Season 01 S01 + Featurettes 2160p BluRay x265 HEVC AI 10bit AAC 5.1【21.2 GB】
萤火虫4k电影.txt
(99 Bytes)

AI推荐主题

回复

使用道具 举报

发烧友评论7

倒序浏览
jlcool 发表于 7 天前 | 显示全部楼层
求第二季啊!
回复 支持 反对

使用道具 举报

yxying886 发表于 2020-9-11 19:09:36 | 显示全部楼层
感谢楼主的分享啊
回复 支持 反对

使用道具 举报

NightmareMK2 发表于 2020-9-5 21:09:11 | 显示全部楼层
我看过电影版,一直没看连续剧,谢谢!
回复 支持 反对

使用道具 举报

2266 发表于 2020-9-1 10:19:26 | 显示全部楼层
哇塞,淳朴、浪漫又经典的科幻剧
回复 支持 反对

使用道具 举报

大红色 发表于 2020-8-31 10:12:13 | 显示全部楼层
vincent4587 发表于 2020-8-30 18:59
很多人非常喜欢这部剧集

是的,豆瓣评分很高
回复 支持 反对

使用道具 举报

vincent4587 发表于 2020-8-30 18:59:32 | 显示全部楼层
很多人非常喜欢这部剧集
回复 支持 反对

使用道具 举报

您需要登录后才可以回帖 登录 | 立即注册

本版积分规则

在线客服

在线客服

服务时间 9:00—18:00

返回顶部

关注微信公众号第一时间推送精彩

官方微信

手机访问

Hao4K影音

专注4k家庭影音,提供家庭影音社区,家庭影音器材库,影音问答平台,影音商城,服务千万家庭影音用户。

本站内容部分由用户自主分享和转载自互联网,转载目的在于传递更多信息,并不代表本网赞同其观点和对其真实性负责。

如有侵权、违反国家法律政策行为,请联系我们,我们会第一时间及时清除和处理!

举报反馈邮箱:admin@hao4k.cn

Copyright  2019-2020  Hao4K影音粤公网安备 44030302001429号    ( 粤ICP备18155646号-1 )|网站地图