专注4K家庭影音, 服务千万家庭影音发烧友!

[美剧] 生物黑客 第一季4k Biohackers.S01.GERMAN.2160p.NF.WEBRip.DDP5.1.x265-4k美剧下载

20964 5
大红色 发表于 2020-8-31 10:16:58 | 只看该作者
电视剧频道
电视剧封面:
电视剧名: 生物黑客 第一季4k
年  代: 2020  
国  家: 美国
类  别: 惊悚 
语  言: 英语
字  幕: 英文原版
上映日期: 2020-08-20
文件格式: mkv    
视频效果: 4K(3840x2160)    
资源大小: 36.21 GB
片  长: 35 分钟
导  演: 克利斯汀·迪特
剧情简介: 讲述医学生Mia,发现在她所在的大学城使用了高度先进的生物黑客技术。当这一突破性的发现落入坏人手中时,她必须决定她站在哪一边,以及她愿意走多远才能找到真相。
生化大杀戒(港) / 生化灾骇(台)/生物黑客 第一季4k Biohackers.S01.GERMAN.2160p.NF.WEBRip.DDP5.1.x265-4k美剧信息
  1. Video
  2. ID : 1
  3. Format : HEVC
  4. Format/Info : High Efficiency Video Coding
  5. Format profile : Main 10@L5.1@High
  6. Codec ID : V_MPEGH/ISO/HEVC
  7. Duration : 44 min 40 s
  8. Bit rate : 21.3 Mb/s
  9. Width : 3 840 pixels
  10. Height : 1 920 pixels
  11. Display aspect ratio : 2.000
  12. Frame rate mode : Constant
  13. Frame rate : 24.000 FPS
  14. Color space : YUV
  15. Chroma subsampling : 4:2:0
  16. Bit depth : 10 bits
  17. Bits/(Pixel*Frame) : 0.121
  18. Stream size : 6.66 GiB (97%)
  19. Writing library : x265 3.0_Au+4-dcbec33bfb0f:[Windows][GCC 8.2.1][64 bit] 10bit
  20. Encoding settings : cpuid=1111039 / frame-threads=4 / numa-pools=28 / wpp / no-pmode / no-pme / no-psnr / no-ssim / log-level=2 / input-csp=1 / input-res=3840x1920 / interlace=0 / total-frames=64320 / level-idc=51 / high-tier=1 / uhd-bd=0 / ref=5 / no-allow-non-conformance / repeat-headers / annexb / aud / hrd / info / hash=0 / no-temporal-layers / open-gop / min-keyint=24 / keyint=250 / gop-lookahead=0 / bframes=8 / b-adapt=2 / b-pyramid / bframe-bias=0 / rc-lookahead=40 / lookahead-slices=8 / scenecut=40 / radl=0 / no-splice / no-intra-refresh / ctu=64 / min-cu-size=8 / no-rect / no-amp / max-tu-size=32 / tu-inter-depth=4 / tu-intra-depth=4 / limit-tu=4 / rdoq-level=0 / dynamic-rd=0.00 / no-ssim-rd / signhide / no-tskip / nr-intra=0 / nr-inter=0 / no-constrained-intra / strong-intra-smoothing / max-merge=4 / limit-refs=3 / no-limit-modes / me=1 / subme=5 / merange=57 / temporal-mvp / weightp / weightb / no-analyze-src-pics / deblock=-3:-3 / no-sao / no-sao-non-deblock / rd=4 / no-early-skip / rskip / no-fast-intra / no-tskip-fast / no-cu-lossless / b-intra / no-splitrd-skip / rdpenalty=0 / psy-rd=2.00 / psy-rdoq=0.00 / no-rd-refine / no-lossless / cbqpoffs=0 / crqpoffs=0 / rc=crf / crf=19.0 / qcomp=0.60 / qpstep=4 / stats-write=0 / stats-read=0 / vbv-maxrate=160000 / vbv-bufsize=160000 / vbv-init=0.9 / crf-max=0.0 / crf-min=0.0 / ipratio=1.30 / pbratio=1.20 / aq-mode=1 / aq-strength=0.85 / no-cutree / zone-count=0 / no-strict-cbr / qg-size=32 / no-rc-grain / qpmax=69 / qpmin=0 / no-const-vbv / sar=1 / overscan=0 / videoformat=5 / range=0 / colorprim=1 / transfer=1 / colormatrix=1 / chromaloc=0 / display-window=0 / max-cll=0,0 / min-luma=0 / max-luma=1023 / log2-max-poc-lsb=8 / vui-timing-info / vui-hrd-info / slices=1 / no-opt-qp-pps / no-opt-ref-list-length-pps / no-multi-pass-opt-rps / scenecut-bias=0.05 / no-opt-cu-delta-qp / no-aq-motion / no-hdr / no-hdr-opt / no-dhdr10-opt / no-idr-recovery-sei / analysis-reuse-level=5 / scale-factor=0 / refine-intra=0 / refine-inter=0 / refine-mv=0 / refine-ctu-distortion=0 / no-limit-sao / ctu-info=0 / no-lowpass-dct / refine-analysis-type=0 / copy-pic=1 / max-ausize-factor=1.0 / no-dynamic-refine / no-single-sei / no-hevc-aq / qp-adaptation-range=1.00
  21. Default : Yes
  22. Forced : No
  23. Color range : Limited
  24. Color primaries : BT.709
  25. Transfer characteristics : BT.709
  26. Matrix coefficients : BT.709

  27. Audio
  28. ID : 2
  29. Format : E-AC-3
  30. Format/Info : Enhanced AC-3
  31. Commercial name : Dolby Digital Plus
  32. Codec ID : A_EAC3
  33. Duration : 44 min 40 s
  34. Bit rate mode : Constant
  35. Bit rate : 640 kb/s
  36. Channel(s) : 6 channels
  37. Channel layout : L R C LFE Ls Rs
  38. Sampling rate : 48.0 kHz
  39. Frame rate : 31.250 FPS (1536 SPF)
  40. Compression mode : Lossy
  41. Stream size : 204 MiB (3%)
  42. Title : German
  43. Language : German
  44. Service kind : Complete Main
  45. Default : Yes
  46. Forced : No

  47. Text #1
  48. ID : 3
  49. Format : UTF-8
  50. Codec ID : S_TEXT/UTF8
  51. Codec ID/Info : UTF-8 Plain Text
  52. Duration : 25 min 2 s
  53. Bit rate : 0 b/s
  54. Count of elements : 5
  55. Stream size : 112 Bytes (0%)
  56. Title : Forced
  57. Language : German
  58. Default : No
  59. Forced : No

  60. Text #2
  61. ID : 4
  62. Format : UTF-8
  63. Codec ID : S_TEXT/UTF8
  64. Codec ID/Info : UTF-8 Plain Text
  65. Duration : 37 min 23 s
  66. Bit rate : 41 b/s
  67. Count of elements : 374
  68. Stream size : 11.4 KiB (0%)
  69. Title : SDH
  70. Language : English
  71. Default : No
  72. Forced : No

  73. Text #3
  74. ID : 5
  75. Format : UTF-8
  76. Codec ID : S_TEXT/UTF8
  77. Codec ID/Info : UTF-8 Plain Text
  78. Duration : 36 min 38 s
  79. Bit rate : 36 b/s
  80. Count of elements : 317
  81. Stream size : 9.89 KiB (0%)
  82. Language : English
  83. Default : No
  84. Forced : No

  85. Text #4
  86. ID : 6
  87. Format : UTF-8
  88. Codec ID : S_TEXT/UTF8
  89. Codec ID/Info : UTF-8 Plain Text
  90. Duration : 34 min 48 s
  91. Bit rate : 71 b/s
  92. Count of elements : 310
  93. Stream size : 18.2 KiB (0%)
  94. Language : Arabic
  95. Default : No
  96. Forced : No

  97. Text #5
  98. ID : 7
  99. Format : UTF-8
  100. Codec ID : S_TEXT/UTF8
  101. Codec ID/Info : UTF-8 Plain Text
  102. Duration : 43 min 47 s
  103. Bit rate : 29 b/s
  104. Count of elements : 315
  105. Stream size : 9.49 KiB (0%)
  106. Language : Czech
  107. Default : No
  108. Forced : No

  109. Text #6
  110. ID : 8
  111. Format : UTF-8
  112. Codec ID : S_TEXT/UTF8
  113. Codec ID/Info : UTF-8 Plain Text
  114. Duration : 43 min 30 s
  115. Bit rate : 27 b/s
  116. Count of elements : 299
  117. Stream size : 8.78 KiB (0%)
  118. Language : Danish
  119. Default : No
  120. Forced : No

  121. Text #7
  122. ID : 9
  123. Format : UTF-8
  124. Codec ID : S_TEXT/UTF8
  125. Codec ID/Info : UTF-8 Plain Text
  126. Duration : 36 min 13 s
  127. Bit rate : 45 b/s
  128. Count of elements : 374
  129. Stream size : 12.1 KiB (0%)
  130. Title : SDH
  131. Language : German
  132. Default : No
  133. Forced : No

  134. Text #8
  135. ID : 10
  136. Format : UTF-8
  137. Codec ID : S_TEXT/UTF8
  138. Codec ID/Info : UTF-8 Plain Text
  139. Duration : 43 min 46 s
  140. Bit rate : 46 b/s
  141. Count of elements : 313
  142. Stream size : 14.9 KiB (0%)
  143. Language : Greek
  144. Default : No
  145. Forced : No

  146. Text #9
  147. ID : 11
  148. Format : UTF-8
  149. Codec ID : S_TEXT/UTF8
  150. Codec ID/Info : UTF-8 Plain Text
  151. Duration : 34 min 48 s
  152. Bit rate : 35 b/s
  153. Count of elements : 320
  154. Stream size : 9.09 KiB (0%)
  155. Language : Spanish
  156. Default : No
  157. Forced : No

  158. Text #10
  159. ID : 12
  160. Format : UTF-8
  161. Codec ID : S_TEXT/UTF8
  162. Codec ID/Info : UTF-8 Plain Text
  163. Duration : 36 min 45 s
  164. Bit rate : 31 b/s
  165. Count of elements : 323
  166. Stream size : 8.54 KiB (0%)
  167. Title : European
  168. Language : Spanish
  169. Default : No
  170. Forced : No

  171. Text #11
  172. ID : 13
  173. Format : UTF-8
  174. Codec ID : S_TEXT/UTF8
  175. Codec ID/Info : UTF-8 Plain Text
  176. Duration : 43 min 47 s
  177. Bit rate : 25 b/s
  178. Count of elements : 294
  179. Stream size : 8.23 KiB (0%)
  180. Language : Finnish
  181. Default : No
  182. Forced : No

  183. Text #12
  184. ID : 14
  185. Format : UTF-8
  186. Codec ID : S_TEXT/UTF8
  187. Codec ID/Info : UTF-8 Plain Text
  188. Duration : 36 min 45 s
  189. Bit rate : 32 b/s
  190. Count of elements : 323
  191. Stream size : 8.69 KiB (0%)
  192. Language : French
  193. Default : No
  194. Forced : No

  195. Text #13
  196. ID : 15
  197. Format : UTF-8
  198. Codec ID : S_TEXT/UTF8
  199. Codec ID/Info : UTF-8 Plain Text
  200. Duration : 36 min 45 s
  201. Bit rate : 57 b/s
  202. Count of elements : 319
  203. Stream size : 15.4 KiB (0%)
  204. Language : Hebrew
  205. Default : No
  206. Forced : No

  207. Text #14
  208. ID : 16
  209. Format : UTF-8
  210. Codec ID : S_TEXT/UTF8
  211. Codec ID/Info : UTF-8 Plain Text
  212. Duration : 43 min 49 s
  213. Bit rate : 28 b/s
  214. Count of elements : 307
  215. Stream size : 9.16 KiB (0%)
  216. Language : Hungarian
  217. Default : No
  218. Forced : No

  219. Text #15
  220. ID : 17
  221. Format : UTF-8
  222. Codec ID : S_TEXT/UTF8
  223. Codec ID/Info : UTF-8 Plain Text
  224. Duration : 36 min 45 s
  225. Bit rate : 34 b/s
  226. Count of elements : 331
  227. Stream size : 9.26 KiB (0%)
  228. Language : Indonesian
  229. Default : No
  230. Forced : No

  231. Text #16
  232. ID : 18
  233. Format : UTF-8
  234. Codec ID : S_TEXT/UTF8
  235. Codec ID/Info : UTF-8 Plain Text
  236. Duration : 43 min 46 s
  237. Bit rate : 28 b/s
  238. Count of elements : 306
  239. Stream size : 9.00 KiB (0%)
  240. Language : Italian
  241. Default : No
  242. Forced : No

  243. Text #17
  244. ID : 19
  245. Format : UTF-8
  246. Codec ID : S_TEXT/UTF8
  247. Codec ID/Info : UTF-8 Plain Text
  248. Duration : 44 min 24 s
  249. Bit rate : 27 b/s
  250. Count of elements : 323
  251. Stream size : 9.10 KiB (0%)
  252. Language : Japanese
  253. Default : No
  254. Forced : No

  255. Text #18
  256. ID : 20
  257. Format : UTF-8
  258. Codec ID : S_TEXT/UTF8
  259. Codec ID/Info : UTF-8 Plain Text
  260. Duration : 36 min 45 s
  261. Bit rate : 44 b/s
  262. Count of elements : 324
  263. Stream size : 12.0 KiB (0%)
  264. Language : Korean
  265. Default : No
  266. Forced : No

  267. Text #19
  268. ID : 21
  269. Format : UTF-8
  270. Codec ID : S_TEXT/UTF8
  271. Codec ID/Info : UTF-8 Plain Text
  272. Duration : 43 min 47 s
  273. Bit rate : 26 b/s
  274. Count of elements : 229
  275. Stream size : 8.47 KiB (0%)
  276. Language : Norwegian Bokmal
  277. Default : No
  278. Forced : No

  279. Text #20
  280. ID : 22
  281. Format : UTF-8
  282. Codec ID : S_TEXT/UTF8
  283. Codec ID/Info : UTF-8 Plain Text
  284. Duration : 36 min 45 s
  285. Bit rate : 29 b/s
  286. Count of elements : 265
  287. Stream size : 7.99 KiB (0%)
  288. Language : Dutch
  289. Default : No
  290. Forced : No

  291. Text #21
  292. ID : 23
  293. Format : UTF-8
  294. Codec ID : S_TEXT/UTF8
  295. Codec ID/Info : UTF-8 Plain Text
  296. Duration : 43 min 49 s
  297. Bit rate : 26 b/s
  298. Count of elements : 313
  299. Stream size : 8.40 KiB (0%)
  300. Language : Polish
  301. Default : No
  302. Forced : No

  303. Text #22
  304. ID : 24
  305. Format : UTF-8
  306. Codec ID : S_TEXT/UTF8
  307. Codec ID/Info : UTF-8 Plain Text
  308. Duration : 36 min 45 s
  309. Bit rate : 31 b/s
  310. Count of elements : 300
  311. Stream size : 8.56 KiB (0%)
  312. Language : Portuguese
  313. Default : No
  314. Forced : No

  315. Text #23
  316. ID : 25
  317. Format : UTF-8
  318. Codec ID : S_TEXT/UTF8
  319. Codec ID/Info : UTF-8 Plain Text
  320. Duration : 34 min 48 s
  321. Bit rate : 34 b/s
  322. Count of elements : 322
  323. Stream size : 8.73 KiB (0%)
  324. Title : Brazilian
  325. Language : Portuguese
  326. Default : No
  327. Forced : No

  328. Text #24
  329. ID : 26
  330. Format : UTF-8
  331. Codec ID : S_TEXT/UTF8
  332. Codec ID/Info : UTF-8 Plain Text
  333. Duration : 43 min 47 s
  334. Bit rate : 32 b/s
  335. Count of elements : 323
  336. Stream size : 10.3 KiB (0%)
  337. Language : Romanian
  338. Default : No
  339. Forced : No

  340. Text #25
  341. ID : 27
  342. Format : UTF-8
  343. Codec ID : S_TEXT/UTF8
  344. Codec ID/Info : UTF-8 Plain Text
  345. Duration : 36 min 45 s
  346. Bit rate : 54 b/s
  347. Count of elements : 320
  348. Stream size : 14.7 KiB (0%)
  349. Language : Russian
  350. Default : No
  351. Forced : No

  352. Text #26
  353. ID : 28
  354. Format : UTF-8
  355. Codec ID : S_TEXT/UTF8
  356. Codec ID/Info : UTF-8 Plain Text
  357. Duration : 36 min 45 s
  358. Bit rate : 34 b/s
  359. Count of elements : 309
  360. Stream size : 9.16 KiB (0%)
  361. Language : Swedish
  362. Default : No
  363. Forced : No

  364. Text #27
  365. ID : 29
  366. Format : UTF-8
  367. Codec ID : S_TEXT/UTF8
  368. Codec ID/Info : UTF-8 Plain Text
  369. Duration : 36 min 45 s
  370. Bit rate : 95 b/s
  371. Count of elements : 324
  372. Stream size : 25.7 KiB (0%)
  373. Language : Thai
  374. Default : No
  375. Forced : No

  376. Text #28
  377. ID : 30
  378. Format : UTF-8
  379. Codec ID : S_TEXT/UTF8
  380. Codec ID/Info : UTF-8 Plain Text
  381. Duration : 43 min 1 s
  382. Bit rate : 28 b/s
  383. Count of elements : 318
  384. Stream size : 8.95 KiB (0%)
  385. Language : Turkish
  386. Default : No
  387. Forced : No

  388. Text #29
  389. ID : 31
  390. Format : UTF-8
  391. Codec ID : S_TEXT/UTF8
  392. Codec ID/Info : UTF-8 Plain Text
  393. Duration : 36 min 45 s
  394. Bit rate : 46 b/s
  395. Count of elements : 323
  396. Stream size : 12.6 KiB (0%)
  397. Language : Vietnamese
  398. Default : No
  399. Forced : No
复制代码

生化大杀戒(港) / 生化灾骇(台)/生物黑客 第一季4k Biohackers.S01.GERMAN.2160p.NF.WEBRip.DDP5.1.x265-4k美剧下载

生物黑客 第一季4k Biohackers.S01.GERMAN.2160p.NF.WEBRip.DDP5.1.x265【36.21 GB】
生物黑客 第一季4k Biohackers.S01.GERMAN.2160p.NF.WEBRip.DDP5.1.x265-NTb[rartv].torrent
(91.48 KB)

AI推荐主题

回复

使用道具 举报

发烧友评论5

倒序浏览
跳转到指定楼层
6#
普吉岛 发表于 3 天前 | 只看该作者
这么快吗?难以置信
回复 支持 反对

使用道具 举报

板凳
gymnastika 发表于 2020-9-7 10:31:17 | 只看该作者
好像真不错
回复 支持 反对

使用道具 举报

您需要登录后才可以回帖 登录 | 立即注册

本版积分规则

在线客服

在线客服

服务时间 9:00—18:00

返回顶部

关注微信公众号第一时间推送精彩

官方微信

手机访问

Hao4K影音

专注4k家庭影音,提供家庭影音社区,家庭影音器材库,影音问答平台,影音商城,服务千万家庭影音用户。

本站内容部分由用户自主分享和转载自互联网,转载目的在于传递更多信息,并不代表本网赞同其观点和对其真实性负责。

如有侵权、违反国家法律政策行为,请联系我们,我们会第一时间及时清除和处理!

举报反馈邮箱:admin@hao4k.cn

Copyright  2019-2020  Hao4K影音粤公网安备 44030302001429号    ( 粤ICP备18155646号-1 )|网站地图