专注4K家庭影音, 服务千万家庭影音发烧友!

[待修复4K资源] 生死狙击Shooter 2007 2160p 4k电影下载

碧池 发表于 2020-9-1 22:35:58 | 显示全部楼层
电影频道
电影封面:
片  名: 生死狙击4k
电影分类: 动作 犯罪 惊悚 悬疑 
国  家: 美国 
年  代: 00年代
分 辨 率: 4K(3840x2160)
电影格式: MKV|REMUX 
画质标准: HDR 
音质编码: Dolby Digital Audio 
电影声道: 5.1声道 
帧数/FPS: 23.976 FPS
电影语言: 英文原版 
资源大小: 3.1 GB
导  演: 安东尼·福奎阿
豆瓣评分: 7.8 分
中文字幕: -
剧情简介: 这是一部谍中谍式的电影,不过主角换成了狙击手。美国退役优秀狙击手鲍勃(马克•沃尔伯格 Mark Wahlberg 饰)正在阿肯色州享受退役后的休闲时光,不料,平地生波,他的前上司前来拜访他,希望他能接受一项新的任务――在总统街头演讲那天充当隐形狙击手暗中保护总统。虽然十万分不情愿,但禁不住上司的游说,鲍勃最终答应了。总统演讲那天,鲍勃正在仔细观察着四周情况时,突然会场遭到枪手袭击,总统身边的衣索比亚主教被杀。鲍勃被当成暗杀者遭遇警方追捕。心知成了替罪羔羊,鲍勃在身中两枪的情况下奋力逃走了。鲍勃此时唯一的出路就是找出幕后的真凶,为自己洗刷罪名。
狙击手 / 辣手枪(港) / 狙击生死线(台) / 神射手 / Double Target/生死狙击4k Shooter 2007 2160p HDR 5.1 x265 10bit -4k电影信息
  1. Video
  2. ID : 1
  3. Format : HEVC
  4. Format/Info : High Efficiency Video Coding
  5. Codec ID : V_MPEGH/ISO/HEVC
  6. Duration : 2 h 5 min
  7. Bit rate : 3 179 kb/s
  8. Width : 3 840 pixels
  9. Height : 1 592 pixels
  10. Display aspect ratio : 2.40:1
  11. Frame rate mode : Constant
  12. Frame rate : 23.976 (24000/1001) FPS
  13. Color space : YUV
  14. Chroma subsampling : 4:2:0
  15. Bit depth : 10 bits
  16. Bits/(Pixel*Frame) : 0.022
  17. Stream size : 2.79 GiB (89%)
  18. Writing library : x265 2.9:[Windows][GCC 7.1.0][64 bit] 10bit
  19. Color range : Full
  20. Color primaries : BT.2020
  21. Transfer characteristics : PQ
  22. Matrix coefficients : BT.2020 non-constant

  23. Audio
  24. ID : 2
  25. Format : AC-3
  26. Format/Info : Audio Coding 3
  27. Commercial name : Dolby Digital
  28. Codec ID : A_AC3
  29. Duration : 2 h 5 min
  30. Bit rate mode : Constant
  31. Bit rate : 320 kb/s
  32. Channel(s) : 6 channels
  33. Channel layout : L R C LFE Ls Rs
  34. Sampling rate : 48.0 kHz
  35. Frame rate : 31.250 FPS (1536 SPF)
  36. Compression mode : Lossy
  37. Delay relative to video : 1 ms
  38. Stream size : 288 MiB (9%)
  39. Title : Surround
  40. Language : English

  41. Text
  42. Language : French
  43. Language : French
  44. Default : No
  45. Forced : No
复制代码

狙击手 / 辣手枪(港) / 狙击生死线(台) / 神射手 / Double Target/生死狙击4k Shooter 2007 2160p HDR 5.1 x265 10bit -4k电影下载

生死狙击4k Shooter 2007 2160p HDR 5.1 x265 10bit【3.1 GB】
生死狙击4k电影.txt
(102 Bytes)
回复

使用道具 举报

发烧友评论12

倒序浏览
lry2k_p 发表于 2020-9-2 06:45:34 Hao4K手机版 | 显示全部楼层
什么玩意?!这种东西也能发得出来,要脸吗?
回复 支持 0 反对 1

使用道具 举报

宁波江南犬舍 发表于 2020-9-7 21:04:31 | 显示全部楼层
不管怎么样  分享资源就很感谢你 谢谢  辛苦了、这个电影很喜欢  希望大佬找到更好的版本分享
回复 支持 反对

使用道具 举报

xv6950 发表于 2020-9-3 15:49:42 | 显示全部楼层
三个G的4K是真的4K吗
回复 支持 反对

使用道具 举报

Xiaofeixia 发表于 2020-9-2 19:18:23 | 显示全部楼层
cni_23@163.com 发表于 2020-9-2 08:00
这真不是爱分享的问题,老哥本意是好的,但是下次找资源真得注意些了

的确,楼主本意是好的,同理,也应该理解部分玩家发帖说4K还不如全高清的意见,因为4K资源本来就有参差不齐的问题
回复 支持 反对

使用道具 举报

cni_23@163.com 发表于 2020-9-2 08:00:58 | 显示全部楼层
碧池 发表于 2020-9-2 07:49
如果要打击一个爱分享人的热情,那么你成功了

这真不是爱分享的问题,老哥本意是好的,但是下次找资源真得注意些了
回复 支持 反对

使用道具 举报

碧池 发表于 2020-9-2 07:49:30 | 显示全部楼层
dindong 发表于 2020-9-1 23:27
这种假4k没人管了吗?

如果要打击一个爱分享人的热情,那么你成功了
回复 支持 反对

使用道具 举报

dyczw 发表于 2020-9-2 06:55:29 | 显示全部楼层
才三个G的4K估计码率太低,效果还不如720P的,纯支持一下。
回复 支持 反对

使用道具 举报

一江秋水 发表于 2020-9-2 01:08:13 | 显示全部楼层
不知道这种资源是怎么审核的
回复 支持 反对

使用道具 举报

dindong 发表于 2020-9-1 23:27:13 | 显示全部楼层
这种假4k没人管了吗?
回复 支持 反对

使用道具 举报

marsc 发表于 2020-9-1 22:57:15 | 显示全部楼层
这两三个G的4K估计又是一个片段,看几分钟没了。
回复 支持 反对

使用道具 举报

您需要登录后才可以回帖 登录 | 立即注册

本版积分规则


0关注

14粉丝

56帖子

热门图文主题
热门主题
社区广告

在线客服

在线客服

服务时间 9:00—18:00

返回顶部

关注微信公众号第一时间推送精彩

官方微信

手机访问

Hao4K影音

专注4k家庭影音,提供家庭影音社区,家庭影音器材库,影音问答平台,影音商城,服务千万家庭影音用户。

本站内容部分由用户自主分享和转载自互联网,转载目的在于传递更多信息,并不代表本网赞同其观点和对其真实性负责。

如有侵权、违反国家法律政策行为,请联系我们,我们会第一时间及时清除和处理!

举报反馈邮箱:admin@hao4k.cn

Copyright  2019-2020  Hao4K影音粤公网安备 44030302001429号    ( 粤ICP备18155646号-1 )|网站地图