专注4K家庭影音, 服务千万家庭影音发烧友!

[待修复4K资源] 七宗罪 Se7en 1995 Featurettes 2160p 4k电影下载

碧池 发表于 2020-9-1 22:49:49 | 显示全部楼层
电影频道
电影封面:
片  名: 七宗罪4k
电影分类: 犯罪 惊悚 剧情 悬疑 
国  家: 美国 
年  代: 90年代
分 辨 率: 4K(3840x2160)
电影格式: MKV|REMUX 
画质标准: 其他 
音质编码: 其他AAC 
电影声道: 7.1声道 
帧数/FPS: 46.875 FPS
电影语言: 英文原版 
资源大小: 8.8 GB
导  演: 大卫·芬奇
豆瓣评分: 8.8 分
中文字幕: -
剧情简介: “暴食”、“贪婪”、“懒惰”、“嫉妒”、“骄傲”、“淫欲”、“愤怒”,这是天主教教义所指的人性七宗罪。城市中发生的连坏杀人案,死者恰好都是犯有这些教义的人。凶手故弄玄虚的作案手法,令资深冷静的警员沙摩塞(摩根•弗里曼 Morgan Freeman 饰)和血气方刚的新扎警员米尔斯(布拉德•皮特 Brad Pitt 饰)都陷入了破案的谜团中。他们去图书馆研读但丁的《神曲》,企图从人间地狱的描绘中找到线索,最后从宗教文学哲学的世界中找到了凶手作案计划和手段的蛛丝马迹。凶手前来投案自首,这令众人都松了一口气,以为案件就此结束,怎料还是逃不出七宗罪的杀人逻辑,这次凶手瞄准的目标,是那个犯了“愤怒”罪的人……
火线追缉令(台) / 7宗罪 / Seven/七宗罪4k Se7en 1995  Featurettes 2160p BluRay x265 HEVC AI 10bit AAC 7.1-4k电影信息
  1. Video
  2. ID : 1
  3. Format : HEVC
  4. Format/Info : High Efficiency Video Coding
  5. Codec ID : V_MPEGH/ISO/HEVC
  6. Duration : 2 h 6 min
  7. Bit rate : 6 001 kb/s
  8. Width : 3 840 pixels
  9. Height : 1 600 pixels
  10. Display aspect ratio : 2.40:1
  11. Frame rate mode : Constant
  12. Frame rate : 23.976 (24000/1001) FPS
  13. Color space : YUV
  14. Chroma subsampling : 4:2:0
  15. Bit depth : 10 bits
  16. Bits/(Pixel*Frame) : 0.041
  17. Stream size : 5.32 GiB (85%)
  18. Writing library : x265 3.2+9-971180b100f8:[Windows][GCC 9.2.0][64 bit] 10bit
  19. Encoding settings : cpuid=1111039 / frame-threads=4 / numa-pools=16 / wpp / no-pmode / no-pme / no-psnr / ssim / log-level=2 / input-csp=1 / input-res=3840x1600 / interlace=0 / total-frames=182450 / level-idc=0 / high-tier=1 / uhd-bd=0 / ref=4 / no-allow-non-conformance / no-repeat-headers / annexb / no-aud / no-hrd / info / hash=0 / no-temporal-layers / open-gop / min-keyint=23 / keyint=250 / gop-lookahead=0 / bframes=8 / b-adapt=2 / b-pyramid / bframe-bias=40 / rc-lookahead=80 / lookahead-slices=4 / scenecut=40 / radl=0 / no-splice / no-intra-refresh / ctu=64 / min-cu-size=8 / rect / no-amp / max-tu-size=32 / tu-inter-depth=1 / tu-intra-depth=1 / limit-tu=0 / rdoq-level=2 / dynamic-rd=0.00 / ssim-rd / signhide / no-tskip / nr-intra=0 / nr-inter=0 / constrained-intra / strong-intra-smoothing / max-merge=3 / limit-refs=3 / limit-modes / me=3 / subme=3 / merange=57 / temporal-mvp / no-frame-dup / no-hme / weightp / no-weightb / no-analyze-src-pics / deblock=0:0 / sao / no-sao-non-deblock / rd=4 / selective-sao=4 / early-skip / rskip / no-fast-intra / no-tskip-fast / no-cu-lossless / no-b-intra / splitrd-skip / rdpenalty=0 / psy-rd=3.50 / psy-rdoq=2.50 / no-rd-refine / no-lossless / cbqpoffs=0 / crqpoffs=0 / rc=abr / bitrate=6000 / qcomp=0.60 / qpstep=4 / stats-write=0 / stats-read=2 / cplxblur=20.0 / qblur=0.5 / ipratio=1.40 / pbratio=1.30 / aq-mode=3 / aq-strength=0.40 / cutree / zone-count=0 / no-strict-cbr / qg-size=32 / no-rc-grain / qpmax=69 / qpmin=0 / no-const-vbv / sar=0 / overscan=0 / videoformat=5 / range=0 / colorprim=2 / transfer=2 / colormatrix=2 / chromaloc=0 / display-window=0 / cll=0,0 / min-luma=0 / max-luma=1023 / log2-max-poc-lsb=8 / vui-timing-info / vui-hrd-info / slices=1 / no-opt-qp-pps / no-opt-ref-list-length-pps / multi-pass-opt-rps / scenecut-bias=0.05 / no-opt-cu-delta-qp / no-aq-motion / no-hdr / no-hdr-opt / no-dhdr10-opt / no-idr-recovery-sei / analysis-load / analysis-reuse-level=10 / scale-factor=0 / refine-intra=0 / refine-inter=0 / refine-mv=1 / refine-ctu-distortion=0 / limit-sao / ctu-info=0 / no-lowpass-dct / refine-analysis-type=0 / copy-pic=1 / max-ausize-factor=1.0 / no-dynamic-refine / no-single-sei / no-hevc-aq / no-svt / no-field / qp-adaptation-range=1.00
  20. Default : Yes
  21. Forced : No

  22. Audio #1
  23. ID : 2
  24. Format : AAC
  25. Format/Info : Advanced Audio Codec
  26. Format profile : LC
  27. Codec ID : A_AAC
  28. Duration : 2 h 6 min
  29. Bit rate : 613 kb/s
  30. Channel(s) : 8 channels
  31. Channel positions : Front: L C R, Side: L R, Back: L R, LFE
  32. Sampling rate : 48.0 kHz
  33. Frame rate : 46.875 FPS (1024 spf)
  34. Compression mode : Lossy
  35. Delay relative to video : 9 ms
  36. Stream size : 556 MiB (9%)
  37. Language : English
  38. Default : No
  39. Forced : No

  40. Audio #2
  41. ID : 24
  42. Format : AAC
  43. Format/Info : Advanced Audio Codec
  44. Format profile : HE-AAC / LC
  45. Codec ID : A_AAC
  46. Duration : 2 h 6 min
  47. Bit rate : 66.2 kb/s
  48. Channel(s) : 2 channels
  49. Channel positions : Front: L R
  50. Sampling rate : 48.0 kHz / 24.0 kHz
  51. Frame rate : 23.438 FPS (1024 spf)
  52. Compression mode : Lossy
  53. Delay relative to video : 40 ms
  54. Stream size : 59.7 MiB (1%)
  55. Title : Commentary by director David Fincher, Morgan Freeman and Brad Pitt
  56. Language : English
  57. Default : No
  58. Forced : No

  59. Audio #3
  60. ID : 25
  61. Format : AAC
  62. Format/Info : Advanced Audio Codec
  63. Format profile : HE-AAC / LC
  64. Codec ID : A_AAC
  65. Duration : 2 h 6 min
  66. Bit rate : 66.2 kb/s
  67. Channel(s) : 2 channels
  68. Channel positions : Front: L R
  69. Sampling rate : 48.0 kHz / 24.0 kHz
  70. Frame rate : 23.438 FPS (1024 spf)
  71. Compression mode : Lossy
  72. Delay relative to video : 40 ms
  73. Stream size : 59.7 MiB (1%)
  74. Title : Commentary by director David Fincher with author Richard Dyer, the Writers
  75. Language : English
  76. Default : No
  77. Forced : No

  78. Audio #4
  79. ID : 26
  80. Format : AAC
  81. Format/Info : Advanced Audio Codec
  82. Format profile : HE-AAC / LC
  83. Codec ID : A_AAC
  84. Duration : 2 h 6 min
  85. Bit rate : 66.2 kb/s
  86. Channel(s) : 2 channels
  87. Channel positions : Front: L R
  88. Sampling rate : 48.0 kHz / 24.0 kHz
  89. Frame rate : 23.438 FPS (1024 spf)
  90. Compression mode : Lossy
  91. Delay relative to video : 40 ms
  92. Stream size : 59.7 MiB (1%)
  93. Title : Commentary by director David Fincher, cinematographer Darius Khondji, production designer Arthur Max, editor Richard Francis-Bruce, and author Richard Dyer
  94. Language : English
  95. Default : No
  96. Forced : No

  97. Audio #5
  98. ID : 27
  99. Format : AAC
  100. Format/Info : Advanced Audio Codec
  101. Format profile : HE-AAC / LC
  102. Codec ID : A_AAC
  103. Duration : 2 h 6 min
  104. Bit rate : 66.2 kb/s
  105. Channel(s) : 2 channels
  106. Channel positions : Front: L R
  107. Sampling rate : 48.0 kHz / 24.0 kHz
  108. Frame rate : 23.438 FPS (1024 spf)
  109. Compression mode : Lossy
  110. Delay relative to video : 40 ms
  111. Stream size : 59.8 MiB (1%)
  112. Title : Commentary by director David Fincher, sound designer Ren Klyce, composer Howard Shore, and author Richard Dyer
  113. Language : English
  114. Default : No
  115. Forced : No

  116. Subtitle #1
  117. ID : 3
  118. Format : PGS
  119. Muxing mode : zlib
  120. Codec ID : S_HDMV/PGS
  121. Codec ID/Info : Picture based subtitle format used on BDs/HD-DVDs
  122. Duration : 2 h 6 min
  123. Bit rate : 35.7 kb/s
  124. Count of elements : 3324
  125. Stream size : 32.2 MiB (1%)
  126. Language : English
  127. Default : No
  128. Forced : No

  129. Subtitle #2
  130. ID : 4
  131. Format : VobSub
  132. Muxing mode : zlib
  133. Codec ID : S_VOBSUB
  134. Codec ID/Info : Picture based subtitle format used on DVDs
  135. Duration : 2 h 0 min
  136. Bit rate : 10.1 kb/s
  137. Count of elements : 1406
  138. Stream size : 8.77 MiB (0%)
  139. Language : Dutch
  140. Default : No
  141. Forced : No

  142. Subtitle #3
  143. ID : 5
  144. Format : VobSub
  145. Muxing mode : zlib
  146. Codec ID : S_VOBSUB
  147. Codec ID/Info : Picture based subtitle format used on DVDs
  148. Duration : 2 h 0 min
  149. Bit rate : 8 900 b/s
  150. Count of elements : 1583
  151. Stream size : 7.70 MiB (0%)
  152. Language : Czech
  153. Default : No
  154. Forced : No

  155. Subtitle #4
  156. ID : 6
  157. Format : VobSub
  158. Muxing mode : zlib
  159. Codec ID : S_VOBSUB
  160. Codec ID/Info : Picture based subtitle format used on DVDs
  161. Duration : 2 h 0 min
  162. Bit rate : 9 820 b/s
  163. Count of elements : 1483
  164. Stream size : 8.50 MiB (0%)
  165. Language : Danish
  166. Default : No
  167. Forced : No

  168. Subtitle #5
  169. ID : 7
  170. Format : VobSub
  171. Muxing mode : zlib
  172. Codec ID : S_VOBSUB
  173. Codec ID/Info : Picture based subtitle format used on DVDs
  174. Duration : 2 h 0 min
  175. Bit rate : 9 250 b/s
  176. Count of elements : 1517
  177. Stream size : 8.00 MiB (0%)
  178. Language : Finnish
  179. Default : No
  180. Forced : No

  181. Subtitle #6
  182. ID : 8
  183. Format : VobSub
  184. Muxing mode : zlib
  185. Codec ID : S_VOBSUB
  186. Codec ID/Info : Picture based subtitle format used on DVDs
  187. Duration : 2 h 0 min
  188. Bit rate : 9 763 b/s
  189. Count of elements : 1567
  190. Stream size : 8.45 MiB (0%)
  191. Language : Norwegian Bokmal
  192. Default : No
  193. Forced : No

  194. Subtitle #7
  195. ID : 9
  196. Format : VobSub
  197. Muxing mode : zlib
  198. Codec ID : S_VOBSUB
  199. Codec ID/Info : Picture based subtitle format used on DVDs
  200. Duration : 2 h 0 min
  201. Bit rate : 8 705 b/s
  202. Count of elements : 1539
  203. Stream size : 7.53 MiB (0%)
  204. Language : Polish
  205. Default : No
  206. Forced : No

  207. Subtitle #8
  208. ID : 10
  209. Format : VobSub
  210. Muxing mode : zlib
  211. Codec ID : S_VOBSUB
  212. Codec ID/Info : Picture based subtitle format used on DVDs
  213. Duration : 2 h 0 min
  214. Bit rate : 8 590 b/s
  215. Count of elements : 1261
  216. Stream size : 7.43 MiB (0%)
  217. Language : Portuguese
  218. Default : No
  219. Forced : No

  220. Subtitle #9
  221. ID : 11
  222. Format : VobSub
  223. Muxing mode : zlib
  224. Codec ID : S_VOBSUB
  225. Codec ID/Info : Picture based subtitle format used on DVDs
  226. Duration : 2 h 0 min
  227. Bit rate : 9 330 b/s
  228. Count of elements : 1572
  229. Stream size : 8.07 MiB (0%)
  230. Language : Swedish
  231. Default : No
  232. Forced : No

  233. Subtitle #10
  234. ID : 12
  235. Format : VobSub
  236. Muxing mode : zlib
  237. Codec ID : S_VOBSUB
  238. Codec ID/Info : Picture based subtitle format used on DVDs
  239. Duration : 1 h 55 min
  240. Bit rate : 212 b/s
  241. Count of elements : 46
  242. Stream size : 180 KiB (0%)
  243. Language : Czech
  244. Default : No
  245. Forced : No

  246. Subtitle #11
  247. ID : 13
  248. Format : UTF-8
  249. Codec ID : S_TEXT/UTF8
  250. Codec ID/Info : UTF-8 Plain Text
  251. Duration : 2 h 0 min
  252. Bit rate : 37 b/s
  253. Count of elements : 1574
  254. Stream size : 33.4 KiB (0%)
  255. Language : Chinese
  256. Default : No
  257. Forced : No

  258. Subtitle #12
  259. ID : 14
  260. Format : UTF-8
  261. Codec ID : S_TEXT/UTF8
  262. Codec ID/Info : UTF-8 Plain Text
  263. Duration : 2 h 5 min
  264. Bit rate : 46 b/s
  265. Count of elements : 1462
  266. Stream size : 42.5 KiB (0%)
  267. Language : French
  268. Default : No
  269. Forced : No

  270. Subtitle #13
  271. ID : 15
  272. Format : UTF-8
  273. Codec ID : S_TEXT/UTF8
  274. Codec ID/Info : UTF-8 Plain Text
  275. Duration : 2 h 0 min
  276. Bit rate : 55 b/s
  277. Count of elements : 1357
  278. Stream size : 48.8 KiB (0%)
  279. Language : German
  280. Default : No
  281. Forced : No

  282. Subtitle #14
  283. ID : 16
  284. Format : UTF-8
  285. Codec ID : S_TEXT/UTF8
  286. Codec ID/Info : UTF-8 Plain Text
  287. Duration : 2 h 0 min
  288. Bit rate : 84 b/s
  289. Count of elements : 1430
  290. Stream size : 74.8 KiB (0%)
  291. Language : Greek
  292. Default : No
  293. Forced : No

  294. Subtitle #15
  295. ID : 17
  296. Format : UTF-8
  297. Codec ID : S_TEXT/UTF8
  298. Codec ID/Info : UTF-8 Plain Text
  299. Duration : 2 h 1 min
  300. Bit rate : 166 b/s
  301. Count of elements : 1526
  302. Stream size : 149 KiB (0%)
  303. Language : Arabic
  304. Default : No
  305. Forced : No

  306. Subtitle #16
  307. ID : 18
  308. Format : UTF-8
  309. Codec ID : S_TEXT/UTF8
  310. Codec ID/Info : UTF-8 Plain Text
  311. Duration : 2 h 1 min
  312. Bit rate : 85 b/s
  313. Count of elements : 1486
  314. Stream size : 76.1 KiB (0%)
  315. Language : Persian
  316. Default : No
  317. Forced : No

  318. Subtitle #17
  319. ID : 19
  320. Format : UTF-8
  321. Codec ID : S_TEXT/UTF8
  322. Codec ID/Info : UTF-8 Plain Text
  323. Duration : 2 h 1 min
  324. Bit rate : 64 b/s
  325. Count of elements : 1542
  326. Stream size : 57.5 KiB (0%)
  327. Language : Indonesian
  328. Default : No
  329. Forced : No

  330. Subtitle #18
  331. ID : 20
  332. Format : UTF-8
  333. Codec ID : S_TEXT/UTF8
  334. Codec ID/Info : UTF-8 Plain Text
  335. Duration : 2 h 0 min
  336. Bit rate : 52 b/s
  337. Count of elements : 1095
  338. Stream size : 46.8 KiB (0%)
  339. Language : Italian
  340. Default : No
  341. Forced : No

  342. Subtitle #19
  343. ID : 21
  344. Format : UTF-8
  345. Codec ID : S_TEXT/UTF8
  346. Codec ID/Info : UTF-8 Plain Text
  347. Duration : 1 h 57 min
  348. Bit rate : 45 b/s
  349. Count of elements : 1449
  350. Stream size : 38.8 KiB (0%)
  351. Language : Japanese
  352. Default : No
  353. Forced : No

  354. Subtitle #20
  355. ID : 22
  356. Format : UTF-8
  357. Codec ID : S_TEXT/UTF8
  358. Codec ID/Info : UTF-8 Plain Text
  359. Duration : 2 h 1 min
  360. Bit rate : 124 b/s
  361. Count of elements : 1573
  362. Stream size : 111 KiB (0%)
  363. Language : Thai
  364. Default : No
  365. Forced : No

  366. Subtitle #21
  367. ID : 23
  368. Format : UTF-8
  369. Codec ID : S_TEXT/UTF8
  370. Codec ID/Info : UTF-8 Plain Text
  371. Duration : 2 h 0 min
  372. Bit rate : 67 b/s
  373. Count of elements : 1513
  374. Stream size : 59.8 KiB (0%)
  375. Language : Vietnamese
  376. Default : No
  377. Forced : No

  378. Subtitle #22
  379. ID : 28
  380. Format : VobSub
  381. Muxing mode : zlib
  382. Codec ID : S_VOBSUB
  383. Codec ID/Info : Picture based subtitle format used on DVDs
  384. Duration : 2 h 6 min
  385. Bit rate : 14.7 kb/s
  386. Count of elements : 2349
  387. Stream size : 13.4 MiB (0%)
  388. Title : Commentary by director David Fincher, Morgan Freeman and Brad Pitt
  389. Language : Chinese
  390. Default : No
  391. Forced : No

  392. Subtitle #23
  393. ID : 29
  394. Format : VobSub
  395. Muxing mode : zlib
  396. Codec ID : S_VOBSUB
  397. Codec ID/Info : Picture based subtitle format used on DVDs
  398. Duration : 2 h 6 min
  399. Bit rate : 15.5 kb/s
  400. Count of elements : 2252
  401. Stream size : 14.0 MiB (0%)
  402. Title : Commentary by director David Fincher with author Richard Dyer, the Writers
  403. Language : Chinese
  404. Default : No
  405. Forced : No

  406. Subtitle #24
  407. ID : 30
  408. Format : VobSub
  409. Muxing mode : zlib
  410. Codec ID : S_VOBSUB
  411. Codec ID/Info : Picture based subtitle format used on DVDs
  412. Duration : 2 h 6 min
  413. Bit rate : 13.8 kb/s
  414. Count of elements : 2155
  415. Stream size : 12.5 MiB (0%)
  416. Title : Commentary by director David Fincher, cinematographer Darius Khondji, production designer Arthur Max, editor Richard Francis-Bruce, and author Richard Dyer
  417. Language : Chinese
  418. Default : No
  419. Forced : No

  420. Subtitle #25
  421. ID : 31
  422. Format : VobSub
  423. Muxing mode : zlib
  424. Codec ID : S_VOBSUB
  425. Codec ID/Info : Picture based subtitle format used on DVDs
  426. Duration : 2 h 6 min
  427. Bit rate : 7 702 b/s
  428. Count of elements : 1231
  429. Stream size : 6.98 MiB (0%)
  430. Title : Commentary by director David Fincher, sound designer Ren Klyce, composer Howard Shore, and author Richard Dyer
  431. Language : Chinese
  432. Default : No
  433. Forced : No

  434. Subtitle #26
  435. ID : 32
  436. Format : VobSub
  437. Muxing mode : zlib
  438. Codec ID : S_VOBSUB
  439. Codec ID/Info : Picture based subtitle format used on DVDs
  440. Duration : 2 h 6 min
  441. Bit rate : 12.4 kb/s
  442. Count of elements : 1729
  443. Stream size : 11.2 MiB (0%)
  444. Language : German
  445. Default : No
  446. Forced : No

  447. Subtitle #27
  448. ID : 33
  449. Format : VobSub
  450. Muxing mode : zlib
  451. Codec ID : S_VOBSUB
  452. Codec ID/Info : Picture based subtitle format used on DVDs
  453. Duration : 2 h 5 min
  454. Bit rate : 9 425 b/s
  455. Count of elements : 1572
  456. Stream size : 8.48 MiB (0%)
  457. Language : Greek
  458. Default : No
  459. Forced : No

  460. Subtitle #28
  461. ID : 34
  462. Format : VobSub
  463. Muxing mode : zlib
  464. Codec ID : S_VOBSUB
  465. Codec ID/Info : Picture based subtitle format used on DVDs
  466. Duration : 2 h 5 min
  467. Bit rate : 7 714 b/s
  468. Count of elements : 1573
  469. Stream size : 6.94 MiB (0%)
  470. Language : Hebrew
  471. Default : No
  472. Forced : No

  473. Subtitle #29
  474. ID : 35
  475. Format : VobSub
  476. Muxing mode : zlib
  477. Codec ID : S_VOBSUB
  478. Codec ID/Info : Picture based subtitle format used on DVDs
  479. Duration : 2 h 5 min
  480. Bit rate : 7 582 b/s
  481. Count of elements : 1575
  482. Stream size : 6.82 MiB (0%)
  483. Language : Korean
  484. Default : No
  485. Forced : No

  486. Subtitle #30
  487. ID : 36
  488. Format : VobSub
  489. Muxing mode : zlib
  490. Codec ID : S_VOBSUB
  491. Codec ID/Info : Picture based subtitle format used on DVDs
  492. Duration : 2 h 6 min
  493. Bit rate : 13.5 kb/s
  494. Count of elements : 2318
  495. Stream size : 12.2 MiB (0%)
  496. Title : Commentary by director David Fincher, Morgan Freeman and Brad Pitt
  497. Language : Korean
  498. Default : No
  499. Forced : No

  500. Subtitle #31
  501. ID : 37
  502. Format : VobSub
  503. Muxing mode : zlib
  504. Codec ID : S_VOBSUB
  505. Codec ID/Info : Picture based subtitle format used on DVDs
  506. Duration : 2 h 6 min
  507. Bit rate : 13.9 kb/s
  508. Count of elements : 2263
  509. Stream size : 12.6 MiB (0%)
  510. Title : Commentary by director David Fincher with author Richard Dyer, the Writers
  511. Language : Korean
  512. Default : No
  513. Forced : No

  514. Subtitle #32
  515. ID : 38
  516. Format : VobSub
  517. Muxing mode : zlib
  518. Codec ID : S_VOBSUB
  519. Codec ID/Info : Picture based subtitle format used on DVDs
  520. Duration : 2 h 6 min
  521. Bit rate : 12.9 kb/s
  522. Count of elements : 2159
  523. Stream size : 11.7 MiB (0%)
  524. Title : Commentary by director David Fincher, cinematographer Darius Khondji, production designer Arthur Max, editor Richard Francis-Bruce, and author Richard Dyer
  525. Language : Korean
  526. Default : No
  527. Forced : No

  528. Subtitle #33
  529. ID : 39
  530. Format : VobSub
  531. Muxing mode : zlib
  532. Codec ID : S_VOBSUB
  533. Codec ID/Info : Picture based subtitle format used on DVDs
  534. Duration : 2 h 6 min
  535. Bit rate : 7 544 b/s
  536. Count of elements : 1208
  537. Stream size : 6.84 MiB (0%)
  538. Title : Commentary by director David Fincher, sound designer Ren Klyce, composer Howard Shore, and author Richard Dyer
  539. Language : Korean
  540. Default : No
  541. Forced : No

  542. Subtitle #34
  543. ID : 40
  544. Format : VobSub
  545. Muxing mode : zlib
  546. Codec ID : S_VOBSUB
  547. Codec ID/Info : Picture based subtitle format used on DVDs
  548. Duration : 2 h 5 min
  549. Bit rate : 9 046 b/s
  550. Count of elements : 1575
  551. Stream size : 8.14 MiB (0%)
  552. Language : Portuguese
  553. Default : No
  554. Forced : No

  555. Subtitle #35
  556. ID : 41
  557. Format : VobSub
  558. Muxing mode : zlib
  559. Codec ID : S_VOBSUB
  560. Codec ID/Info : Picture based subtitle format used on DVDs
  561. Duration : 2 h 5 min
  562. Bit rate : 8 933 b/s
  563. Count of elements : 1541
  564. Stream size : 8.04 MiB (0%)
  565. Language : Spanish
  566. Default : No
  567. Forced : No

  568. Subtitle #36
  569. ID : 42
  570. Format : VobSub
  571. Muxing mode : zlib
  572. Codec ID : S_VOBSUB
  573. Codec ID/Info : Picture based subtitle format used on DVDs
  574. Duration : 2 h 5 min
  575. Bit rate : 8 703 b/s
  576. Count of elements : 1575
  577. Stream size : 7.83 MiB (0%)
  578. Language : Thai
  579. Default : No
  580. Forced : No

  581. Subtitle #37
  582. ID : 43
  583. Format : VobSub
  584. Muxing mode : zlib
  585. Codec ID : S_VOBSUB
  586. Codec ID/Info : Picture based subtitle format used on DVDs
  587. Duration : 2 h 5 min
  588. Bit rate : 9 833 b/s
  589. Count of elements : 1573
  590. Stream size : 8.84 MiB (0%)
  591. Language : Turkish
  592. Default : No
  593. Forced : No

  594. Menu
  595. 00:00:00.000 : en:Opening Logo
  596. 00:04:11.251 : en:The Last Seven Days
  597. 00:06:19.253 : en:Main Title
  598. 00:07:33.744 : en:Monday
  599. 00:14:47.511 : en:Gluttony
  600. 00:17:07.443 : en:Somerset Wants Out
  601. 00:18:11.465 : en:Tuesday
  602. 00:21:42.175 : en:Greed
  603. 00:24:26.756 : en:Seven Deadly Sins
  604. 00:29:28.516 : en:Hitting the Books
  605. 00:30:27.033 : en:Wednesday
  606. 00:33:13.157 : en:Close Quarters
  607. 00:37:28.454 : en:A Late Supper
  608. 00:42:23.541 : en:Forced Attrition
  609. 00:43:32.860 : en:Mrs. Gould
  610. 00:47:43.235 : en:Help Me
  611. 00:50:18.390 : en:Thursday
  612. 00:54:24.803 : en:Sloth
  613. 00:57:28.194 : en:Feeding Off His Emotions
  614. 01:01:45.159 : en:Friday
  615. 01:04:19.605 : en:Methodical, Exacting and Patient
  616. 01:07:26.584 : en:Who's Reading What
  617. 01:14:45.022 : en:John Doe
  618. 01:20:34.037 : en:A Reason to Knock
  619. 01:24:07.250 : en:"I Admire You"
  620. 01:25:04.140 : en:Saturday
  621. 01:28:15.498 : en:Lust
  622. 01:33:05.162 : en:Apathy Is Easy
  623. 01:33:58.799 : en:Sunday; Pride
  624. 01:36:46.967 : en:Surrender
  625. 01:39:04.480 : en:The Deal
  626. 01:40:53.797 : en:Ready to Move
  627. 01:44:05.030 : en:"You Won't Miss a Thing"
  628. 01:50:53.855 : en:The Chosen One
  629. 01:53:06.196 : en:"It's Close"
  630. 01:56:56.634 : en:The Package
  631. 02:02:00.313 : en:Envy and Wrath
  632. 02:06:49.393 : en:End Credits
复制代码

火线追缉令(台) / 7宗罪 / Seven/七宗罪4k Se7en 1995  Featurettes 2160p BluRay x265 HEVC AI 10bit AAC 7.1-4k电影下载


七宗罪4k Se7en 1995  Featurettes 2160p BluRay x265 HEVC AI 10bit AAC 7.1【6.9 GB】
七宗罪4k电影.txt
(99 Bytes)
回复

使用道具 举报

发烧友评论17

倒序浏览
dindong 发表于 2020-9-1 23:26:41 | 显示全部楼层
这种假4k没人管了吗?
回复 支持 2 反对 0

使用道具 举报

vincent4587 发表于 2020-9-9 10:42:40 | 显示全部楼层
这片子4K蓝光出来了?
回复 支持 反对

使用道具 举报

zhangxinhua4k 发表于 2020-9-5 21:24:56 | 显示全部楼层
这部电影不错,但这个版本就不下了
回复 支持 反对

使用道具 举报

寂静岭 发表于 2020-9-4 19:25:39 | 显示全部楼层
清晰度还可以啊,自带中文字幕,感谢分享
回复 支持 反对

使用道具 举报

sycwang 发表于 2020-9-3 21:23:58 | 显示全部楼层
碧池 发表于 2020-9-2 07:46
已重新更新,再试试

已经ok了
回复 支持 反对

使用道具 举报

yangly 发表于 2020-9-2 12:46:25 | 显示全部楼层
谢谢楼主分享。
回复 支持 反对

使用道具 举报

七彩黄山 发表于 2020-9-2 08:33:31 | 显示全部楼层
人员是下载不了的。
回复 支持 反对

使用道具 举报

碧池 发表于 2020-9-2 07:48:52 | 显示全部楼层
dindong 发表于 2020-9-1 23:26
这种假4k没人管了吗?

只是热爱分享,仅此而已
回复 支持 反对

使用道具 举报

 楼主| 碧池 发表于 2020-9-2 07:46:47 | 显示全部楼层
sycwang 发表于 2020-9-1 23:02
您的下载地址有误

已重新更新,再试试
回复 支持 反对

使用道具 举报

 楼主| 碧池 发表于 2020-9-2 07:45:14 | 显示全部楼层

已更新,再试试
回复 支持 反对

使用道具 举报

 楼主| cngzhzh 发表于 2020-9-2 06:52:52 | 显示全部楼层

您的下载地址有误
回复 支持 反对

使用道具 举报

威海一米阳光 发表于 2020-9-2 06:20:41 | 显示全部楼层
还能称之4K吗, 之前这样的片子是不会在好4K出现的。
回复 支持 反对

使用道具 举报

一江秋水 发表于 2020-9-2 01:10:06 | 显示全部楼层
8.8G,这种也是4k资源吗?
回复 支持 反对

使用道具 举报

七彩黄山 发表于 2020-9-2 00:25:05 | 显示全部楼层
这个下载不了。
回复 支持 反对

使用道具 举报

sm-king 发表于 2020-9-2 00:02:01 | 显示全部楼层
这个非常经典
回复 支持 反对

使用道具 举报

sycwang 发表于 2020-9-1 23:02:37 | 显示全部楼层
您的下载地址有误
回复 支持 反对

使用道具 举报

您需要登录后才可以回帖 登录 | 立即注册

本版积分规则


0关注

17粉丝

64帖子

热门图文主题
热门主题
社区广告

在线客服

在线客服

服务时间 9:00—18:00

返回顶部

关注微信公众号第一时间推送精彩

官方微信

手机访问

Hao4K影音

专注4k家庭影音,提供家庭影音社区,家庭影音器材库,影音问答平台,影音商城,服务千万家庭影音用户。

本站内容部分由用户自主分享和转载自互联网,转载目的在于传递更多信息,并不代表本网赞同其观点和对其真实性负责。

如有侵权、违反国家法律政策行为,请联系我们,我们会第一时间及时清除和处理!

举报反馈邮箱:admin@hao4k.cn

Copyright  2019-2020  Hao4K影音粤公网安备 44030302001429号    ( 粤ICP备18155646号-1 )|网站地图