专注4K家庭影音, 服务千万家庭影音发烧友!

[美剧] 星际迷航:下层舰员 第一季4k Star Trek Lower Decks S01E01 (2160p UpRez AMZN WEB-DL x265 HEVC 10bit AAC 5.1-4k美剧下载

碧池 发表于 2020-9-4 10:44:45 | 显示全部楼层
电视剧频道
电视剧封面:
电视剧名: 星际迷航:下层舰员 第一季4k
年  代: 2020  
国  家: 美国
类  别: 科幻 喜剧 动画 
语  言: 英语
字  幕: 英文原版
上映日期: 2020-08-06
文件格式: mkv    
视频效果: 4K(3840x2160)    
资源大小: 813.4 MB GB
片  长: 26 分钟
导  演: 巴里·J·凯利
剧情简介: CBS All Access过去预订两季份的成人向动画剧《星际迷航:下层舰员 Star Trek: Lower Decks》,该动画由《瑞克和莫蒂 Rick and Morty》主编剧Mike McMahan负责,剧中讲述一艘重要性不高星舰里的支援组舰员。
  Jerry O’Connell﹑Tawny Newsome﹑Jack Quaid﹑Noel Wells﹑Eugene Cordero﹑Fred Tatasciore﹑Dawnn Lewis﹑Gillian Vigman加盟剧组,Jerry O’Connell的角色是中校Ransom﹑Tawny Newsome角色是性格严肃的Mariner少尉﹑Jack Quaid的是Boimler,与Mariner个性刚好相反,这使得他们经常发生冲突。
  Noel Wells的Tendi少尉是星舰迷,对于自己终于能登舰是感到兴奋﹑Eugene Cordero的是Rutherford少尉,他是个技术很好的工程师,不过经常没有解决问题。Fred Tatasciore的是Shaxs上尉﹑Dawnn Lewis是Freeman上校﹑Gillian Vigman则是T’ana博士。
  10集首季预定2020年上线。
星际迷航:下层/星际迷航:下层舰员 第一季4k Star Trek Lower Decks S01E01 (2160p UpRez AMZN WEB-DL x265 HEVC 10bit AAC 5.1-4k美剧信息
  1. Video
  2. ID : 1
  3. Format : HEVC
  4. Format/Info : High Efficiency Video Coding
  5. Codec ID : V_MPEGH/ISO/HEVC
  6. Duration : 25 min 48 s
  7. Bit rate : 3 999 kb/s
  8. Width : 3 840 pixels
  9. Height : 2 160 pixels
  10. Display aspect ratio : 16:9
  11. Frame rate mode : Constant
  12. Frame rate : 24.000 FPS
  13. Color space : YUV
  14. Chroma subsampling : 4:2:0
  15. Bit depth : 10 bits
  16. Bits/(Pixel*Frame) : 0.020
  17. Stream size : 738 MiB (91%)
  18. Writing library : x265 3.2+9-971180b100f8:[Windows][MSVC 1923][64 bit] 10bit
  19. Encoding settings : cpuid=1111039 / frame-threads=3 / numa-pools=12 / wpp / no-pmode / no-pme / no-psnr / ssim / log-level=2 / input-csp=1 / input-res=3840x2160 / interlace=0 / total-frames=37171 / level-idc=0 / high-tier=1 / uhd-bd=0 / ref=4 / no-allow-non-conformance / no-repeat-headers / annexb / no-aud / no-hrd / info / hash=0 / no-temporal-layers / open-gop / min-keyint=24 / keyint=250 / gop-lookahead=0 / bframes=8 / b-adapt=2 / b-pyramid / bframe-bias=40 / rc-lookahead=80 / lookahead-slices=4 / scenecut=40 / radl=0 / no-splice / no-intra-refresh / ctu=64 / min-cu-size=8 / no-rect / no-amp / max-tu-size=32 / tu-inter-depth=1 / tu-intra-depth=1 / limit-tu=0 / rdoq-level=2 / dynamic-rd=0.00 / ssim-rd / signhide / no-tskip / nr-intra=0 / nr-inter=0 / constrained-intra / strong-intra-smoothing / max-merge=3 / limit-refs=3 / limit-modes / me=3 / subme=5 / merange=57 / temporal-mvp / no-frame-dup / no-hme / weightp / no-weightb / no-analyze-src-pics / deblock=0:0 / sao / no-sao-non-deblock / rd=4 / selective-sao=4 / early-skip / rskip / no-fast-intra / no-tskip-fast / no-cu-lossless / no-b-intra / splitrd-skip / rdpenalty=0 / psy-rd=2.20 / psy-rdoq=1.15 / no-rd-refine / no-lossless / cbqpoffs=0 / crqpoffs=0 / rc=abr / bitrate=4000 / qcomp=0.50 / qpstep=4 / stats-write=0 / stats-read=2 / cplxblur=20.0 / qblur=0.5 / ipratio=1.40 / pbratio=1.30 / aq-mode=3 / aq-strength=0.80 / cutree / zone-count=0 / no-strict-cbr / qg-size=32 / no-rc-grain / qpmax=69 / qpmin=0 / no-const-vbv / sar=0 / overscan=0 / videoformat=5 / range=0 / colorprim=2 / transfer=2 / colormatrix=2 / chromaloc=0 / display-window=0 / cll=0,0 / min-luma=0 / max-luma=1023 / log2-max-poc-lsb=8 / vui-timing-info / vui-hrd-info / slices=1 / no-opt-qp-pps / no-opt-ref-list-length-pps / multi-pass-opt-rps / scenecut-bias=0.05 / no-opt-cu-delta-qp / no-aq-motion / no-hdr / no-hdr-opt / no-dhdr10-opt / no-idr-recovery-sei / analysis-reuse-level=10 / scale-factor=0 / refine-intra=0 / refine-inter=0 / refine-mv=1 / refine-ctu-distortion=0 / limit-sao / ctu-info=0 / no-lowpass-dct / refine-analysis-type=0 / copy-pic=1 / max-ausize-factor=1.0 / no-dynamic-refine / no-single-sei / no-hevc-aq / no-svt / no-field / qp-adaptation-range=1.00
  20. Default : Yes
  21. Forced : No

  22. Audio
  23. ID : 2
  24. Format : AAC
  25. Format/Info : Advanced Audio Codec
  26. Format profile : LC
  27. Codec ID : A_AAC
  28. Duration : 25 min 48 s
  29. Bit rate : 404 kb/s
  30. Channel(s) : 6 channels
  31. Channel positions : Front: L C R, Side: L R, LFE
  32. Sampling rate : 48.0 kHz
  33. Frame rate : 46.875 FPS (1024 spf)
  34. Compression mode : Lossy
  35. Delay relative to video : 9 ms
  36. Stream size : 74.6 MiB (9%)
  37. Language : English
  38. Default : No
  39. Forced : No

  40. Subtitle #1
  41. ID : 3
  42. Format : UTF-8
  43. Codec ID : S_TEXT/UTF8
  44. Codec ID/Info : UTF-8 Plain Text
  45. Duration : 23 min 57 s
  46. Bit rate : 108 b/s
  47. Count of elements : 549
  48. Stream size : 19.0 KiB (0%)
  49. Language : English
  50. Default : No
  51. Forced : No

  52. Subtitle #2
  53. ID : 4
  54. Format : UTF-8
  55. Codec ID : S_TEXT/UTF8
  56. Codec ID/Info : UTF-8 Plain Text
  57. Duration : 23 min 57 s
  58. Bit rate : 115 b/s
  59. Count of elements : 601
  60. Stream size : 20.3 KiB (0%)
  61. Language : English
  62. Default : No
  63. Forced : No

  64. Menu
  65. 00:00:00.000 : en:Ratings
  66. 00:00:04.000 : en:Studio Logo
  67. 00:00:13.000 : en:Scene 3
  68. 00:01:45.000 : en:Title Sequence
  69. 00:02:09.000 : en:Opening Credits
  70. 00:02:56.000 : en:Scene 6
  71. 00:03:59.000 : en:Scene 7
  72. 00:05:16.000 : en:Scene 8
  73. 00:06:13.000 : en:Scene 9
  74. 00:07:28.000 : en:Scene 10
  75. 00:08:01.000 : en:Scene 11
  76. 00:08:40.000 : en:Scene 12
  77. 00:11:34.000 : en:Scene 13
  78. 00:13:15.000 : en:Scene 14
  79. 00:15:49.000 : en:Scene 15
  80. 00:21:18.000 : en:Scene 16
  81. 00:24:11.000 : en:Next on
  82. 00:24:41.000 : en:End Credits
复制代码

星际迷航:下层/星际迷航:下层舰员 第一季4k Star Trek Lower Decks S01E04 (2160p UpRez AMZN WEB-DL x265 HEVC 10bit AAC 5.1-4k美剧下载

星际迷航:下层舰员 第一季4k Star Trek Lower Decks S01E01 (2160p UpRez AMZN WEB-DL x265 HEVC 10bit AAC 5.1【826.8 MB】
星际迷航:下层舰员 第一季4k.txt
(122 Bytes)

AI推荐主题

回复

使用道具 举报

您需要登录后才可以回帖 登录 | 立即注册

本版积分规则

在线客服

在线客服

服务时间 9:00—18:00

返回顶部

关注微信公众号第一时间推送精彩

官方微信

手机访问

Hao4K影音

专注4k家庭影音,提供家庭影音社区,家庭影音器材库,影音问答平台,影音商城,服务千万家庭影音用户。

本站内容部分由用户自主分享和转载自互联网,转载目的在于传递更多信息,并不代表本网赞同其观点和对其真实性负责。

如有侵权、违反国家法律政策行为,请联系我们,我们会第一时间及时清除和处理!

举报反馈邮箱:admin@hao4k.cn

Copyright  2019-2020  Hao4K影音粤公网安备 44030302001429号    ( 粤ICP备18155646号-1 )|网站地图