专注4K家庭影音, 服务千万家庭影音发烧友!

[待验证4K资源] 飞出个未来大电影4:绿色狂想4k Futurama Into The Wild Green Yonder 2009 2160p BluRay x265 HEVC AI 10bit AAC 5.1-4k电影下载

碧池 发表于 2020-9-4 16:05:57 | 显示全部楼层
电影频道
电影封面:
片  名: 飞出个未来大电影4:绿色狂想4k
电影分类: 科幻 喜剧 动画 
国  家: 美国 
年  代: 00年代
分 辨 率: 4K(3840x2160)
电影格式: MKV|REMUX 
画质标准: 其他 
音质编码: 其他AAC 
电影声道: 5.1声道 
帧数/FPS: 23.976 FPS
电影语言: 英文原版 
资源大小: 4.1 GB
导  演: 皮特·阿凡季诺
豆瓣评分: 8.3 分
中文字幕: -
剧情简介: 所有银河的其他星系都要嫉妒得抓狂!在这部全新的Futurama狂妄之作里,人类即将跨入一个崭新的绿色纪元,但是远古的邪恶力量将要返回来复仇和毁灭一切——它的存在比时间本身都老三年。还有更令人惊愕的:Bender爱上一个已婚的女机器人,而Leela被法律通缉了——Zapp Brannigan的法律!FRY是宇宙的最后希望...因此如果你在这个宇宙里,那就赶快考虑逃到别的地方吧。这将是行星快递成员们永远的终章?快说不是那样的,肉包! 让我们现在就出发,去远方的绿色原野!
飞出个未来:绿色狂想 / The Futurama Movie 4/飞出个未来大电影4:绿色狂想4k Futurama Into The Wild Green Yonder 2009 2160p BluRay x265 HEVC AI 10bit AAC 5.1-4k电影信息
  1. Video
  2. ID : 1
  3. Format : HEVC
  4. Format/Info : High Efficiency Video Coding
  5. Codec ID : V_MPEGH/ISO/HEVC
  6. Duration : 1 h 29 min
  7. Bit rate : 6 005 kb/s
  8. Width : 3 840 pixels
  9. Height : 2 160 pixels
  10. Display aspect ratio : 16:9
  11. Frame rate mode : Constant
  12. Frame rate : 23.976 (24000/1001) FPS
  13. Color space : YUV
  14. Chroma subsampling : 4:2:0
  15. Bit depth : 10 bits
  16. Bits/(Pixel*Frame) : 0.030
  17. Stream size : 3.74 GiB (91%)
  18. Writing library : x265 3.2+9-971180b100f8:[Windows][GCC 9.2.0][64 bit] 10bit
  19. Encoding settings : cpuid=1111039 / frame-threads=4 / numa-pools=16 / wpp / no-pmode / no-pme / no-psnr / ssim / log-level=2 / input-csp=1 / input-res=3840x2160 / interlace=0 / total-frames=128401 / level-idc=0 / high-tier=1 / uhd-bd=0 / ref=4 / no-allow-non-conformance / no-repeat-headers / annexb / no-aud / no-hrd / info / hash=0 / no-temporal-layers / open-gop / min-keyint=23 / keyint=250 / gop-lookahead=0 / bframes=8 / b-adapt=2 / b-pyramid / bframe-bias=40 / rc-lookahead=80 / lookahead-slices=4 / scenecut=40 / radl=0 / no-splice / no-intra-refresh / ctu=64 / min-cu-size=8 / rect / no-amp / max-tu-size=32 / tu-inter-depth=1 / tu-intra-depth=1 / limit-tu=0 / rdoq-level=2 / dynamic-rd=0.00 / ssim-rd / signhide / no-tskip / nr-intra=0 / nr-inter=0 / constrained-intra / strong-intra-smoothing / max-merge=3 / limit-refs=3 / limit-modes / me=3 / subme=3 / merange=57 / temporal-mvp / no-frame-dup / no-hme / weightp / no-weightb / no-analyze-src-pics / deblock=0:0 / sao / no-sao-non-deblock / rd=4 / selective-sao=4 / early-skip / rskip / no-fast-intra / no-tskip-fast / no-cu-lossless / no-b-intra / splitrd-skip / rdpenalty=0 / psy-rd=3.50 / psy-rdoq=2.50 / no-rd-refine / no-lossless / cbqpoffs=0 / crqpoffs=0 / rc=abr / bitrate=6000 / qcomp=0.60 / qpstep=4 / stats-write=0 / stats-read=2 / cplxblur=20.0 / qblur=0.5 / ipratio=1.40 / pbratio=1.30 / aq-mode=3 / aq-strength=0.40 / cutree / zone-count=0 / no-strict-cbr / qg-size=32 / no-rc-grain / qpmax=69 / qpmin=0 / no-const-vbv / sar=0 / overscan=0 / videoformat=5 / range=0 / colorprim=2 / transfer=2 / colormatrix=2 / chromaloc=0 / display-window=0 / cll=0,0 / min-luma=0 / max-luma=1023 / log2-max-poc-lsb=8 / vui-timing-info / vui-hrd-info / slices=1 / no-opt-qp-pps / no-opt-ref-list-length-pps / multi-pass-opt-rps / scenecut-bias=0.05 / no-opt-cu-delta-qp / no-aq-motion / no-hdr / no-hdr-opt / no-dhdr10-opt / no-idr-recovery-sei / analysis-load / analysis-reuse-level=10 / scale-factor=0 / refine-intra=0 / refine-inter=0 / refine-mv=1 / refine-ctu-distortion=0 / limit-sao / ctu-info=0 / no-lowpass-dct / refine-analysis-type=0 / copy-pic=1 / max-ausize-factor=1.0 / no-dynamic-refine / no-single-sei / no-hevc-aq / no-svt / no-field / qp-adaptation-range=1.00
  20. Default : Yes
  21. Forced : No

  22. Audio #1
  23. ID : 2
  24. Format : AAC
  25. Format/Info : Advanced Audio Codec
  26. Format profile : LC
  27. Codec ID : A_AAC
  28. Duration : 1 h 29 min
  29. Bit rate : 392 kb/s
  30. Channel(s) : 6 channels
  31. Channel positions : Front: L C R, Side: C, Back: L R
  32. Sampling rate : 48.0 kHz
  33. Frame rate : 46.875 FPS (1024 spf)
  34. Compression mode : Lossy
  35. Stream size : 250 MiB (6%)
  36. Language : English
  37. Default : Yes
  38. Forced : No

  39. Audio #2
  40. ID : 3
  41. Format : AAC
  42. Format/Info : Advanced Audio Codec
  43. Format profile : HE-AAC / LC
  44. Codec ID : A_AAC
  45. Duration : 1 h 29 min
  46. Bit rate : 40.4 kb/s
  47. Channel(s) : 2 channels
  48. Channel positions : Front: L R
  49. Sampling rate : 48.0 kHz / 24.0 kHz
  50. Frame rate : 23.438 FPS (1024 spf)
  51. Compression mode : Lossy
  52. Delay relative to video : 31 ms
  53. Stream size : 25.8 MiB (1%)
  54. Title : Commentary
  55. Language : English
  56. Default : No
  57. Forced : No

  58. Subtitle #1
  59. ID : 4
  60. Format : PGS
  61. Muxing mode : zlib
  62. Codec ID : S_HDMV/PGS
  63. Codec ID/Info : Picture based subtitle format used on BDs/HD-DVDs
  64. Duration : 1 h 26 min
  65. Bit rate : 59.0 kb/s
  66. Count of elements : 3225
  67. Stream size : 36.6 MiB (1%)
  68. Language : English
  69. Default : No
  70. Forced : No

  71. Subtitle #2
  72. ID : 5
  73. Format : VobSub
  74. Muxing mode : zlib
  75. Codec ID : S_VOBSUB
  76. Codec ID/Info : Picture based subtitle format used on DVDs
  77. Duration : 1 h 26 min
  78. Bit rate : 10.3 kb/s
  79. Count of elements : 1185
  80. Stream size : 6.38 MiB (0%)
  81. Language : Chinese
  82. Default : No
  83. Forced : No

  84. Subtitle #3
  85. ID : 6
  86. Format : VobSub
  87. Muxing mode : zlib
  88. Codec ID : S_VOBSUB
  89. Codec ID/Info : Picture based subtitle format used on DVDs
  90. Duration : 1 h 26 min
  91. Bit rate : 14.1 kb/s
  92. Count of elements : 1177
  93. Stream size : 8.73 MiB (0%)
  94. Language : Danish
  95. Default : No
  96. Forced : No

  97. Subtitle #4
  98. ID : 7
  99. Format : VobSub
  100. Muxing mode : zlib
  101. Codec ID : S_VOBSUB
  102. Codec ID/Info : Picture based subtitle format used on DVDs
  103. Duration : 1 h 26 min
  104. Bit rate : 13.5 kb/s
  105. Count of elements : 1176
  106. Stream size : 8.41 MiB (0%)
  107. Language : Finnish
  108. Default : No
  109. Forced : No

  110. Subtitle #5
  111. ID : 8
  112. Format : VobSub
  113. Muxing mode : zlib
  114. Codec ID : S_VOBSUB
  115. Codec ID/Info : Picture based subtitle format used on DVDs
  116. Duration : 1 h 26 min
  117. Bit rate : 14.1 kb/s
  118. Count of elements : 1178
  119. Stream size : 8.76 MiB (0%)
  120. Language : French
  121. Default : No
  122. Forced : No

  123. Subtitle #6
  124. ID : 9
  125. Format : VobSub
  126. Muxing mode : zlib
  127. Codec ID : S_VOBSUB
  128. Codec ID/Info : Picture based subtitle format used on DVDs
  129. Duration : 1 h 26 min
  130. Bit rate : 13.5 kb/s
  131. Count of elements : 1175
  132. Stream size : 8.35 MiB (0%)
  133. Language : Norwegian Bokmal
  134. Default : No
  135. Forced : No

  136. Subtitle #7
  137. ID : 10
  138. Format : VobSub
  139. Muxing mode : zlib
  140. Codec ID : S_VOBSUB
  141. Codec ID/Info : Picture based subtitle format used on DVDs
  142. Duration : 1 h 26 min
  143. Bit rate : 14.2 kb/s
  144. Count of elements : 1182
  145. Stream size : 8.83 MiB (0%)
  146. Language : Spanish
  147. Default : No
  148. Forced : No

  149. Subtitle #8
  150. ID : 11
  151. Format : VobSub
  152. Muxing mode : zlib
  153. Codec ID : S_VOBSUB
  154. Codec ID/Info : Picture based subtitle format used on DVDs
  155. Duration : 1 h 26 min
  156. Bit rate : 13.3 kb/s
  157. Count of elements : 1178
  158. Stream size : 8.29 MiB (0%)
  159. Language : Swedish
  160. Default : No
  161. Forced : No

  162. Subtitle #9
  163. ID : 12
  164. Format : VobSub
  165. Muxing mode : zlib
  166. Codec ID : S_VOBSUB
  167. Codec ID/Info : Picture based subtitle format used on DVDs
  168. Duration : 1 h 29 min
  169. Bit rate : 25.7 kb/s
  170. Count of elements : 1966
  171. Stream size : 16.4 MiB (0%)
  172. Language : English
  173. Default : No
  174. Forced : No

  175. Subtitle #10
  176. ID : 13
  177. Format : VobSub
  178. Muxing mode : zlib
  179. Codec ID : S_VOBSUB
  180. Codec ID/Info : Picture based subtitle format used on DVDs
  181. Duration : 1 h 29 min
  182. Bit rate : 17.1 kb/s
  183. Count of elements : 1784
  184. Stream size : 10.9 MiB (0%)
  185. Language : Danish
  186. Default : No
  187. Forced : No

  188. Subtitle #11
  189. ID : 14
  190. Format : VobSub
  191. Muxing mode : zlib
  192. Codec ID : S_VOBSUB
  193. Codec ID/Info : Picture based subtitle format used on DVDs
  194. Duration : 1 h 29 min
  195. Bit rate : 17.4 kb/s
  196. Count of elements : 1784
  197. Stream size : 11.1 MiB (0%)
  198. Language : Finnish
  199. Default : No
  200. Forced : No

  201. Subtitle #12
  202. ID : 15
  203. Format : VobSub
  204. Muxing mode : zlib
  205. Codec ID : S_VOBSUB
  206. Codec ID/Info : Picture based subtitle format used on DVDs
  207. Duration : 1 h 29 min
  208. Bit rate : 18.6 kb/s
  209. Count of elements : 1783
  210. Stream size : 11.9 MiB (0%)
  211. Language : Norwegian Bokmal
  212. Default : No
  213. Forced : No

  214. Subtitle #13
  215. ID : 16
  216. Format : VobSub
  217. Muxing mode : zlib
  218. Codec ID : S_VOBSUB
  219. Codec ID/Info : Picture based subtitle format used on DVDs
  220. Duration : 1 h 29 min
  221. Bit rate : 17.0 kb/s
  222. Count of elements : 1784
  223. Stream size : 10.9 MiB (0%)
  224. Language : Swedish
  225. Default : No
  226. Forced : No

  227. Menu
  228. 00:00:00.000 : en:Chapter 1
  229. 00:08:47.694 : en:Chapter 2
  230. 00:16:49.467 : en:Chapter 3
  231. 00:22:25.052 : en:Chapter 4
  232. 00:30:26.116 : en:Chapter 5
  233. 00:35:32.213 : en:Chapter 6
  234. 00:43:42.245 : en:Chapter 7
  235. 00:51:25.708 : en:Chapter 8
  236. 00:58:37.264 : en:Chapter 9
  237. 01:05:23.628 : en:Chapter 10
  238. 01:11:28.075 : en:Chapter 11
  239. 01:15:16.178 : en:Chapter 12
复制代码

飞出个未来:绿色狂想 / The Futurama Movie 4/飞出个未来大电影4:绿色狂想4k Futurama Into The Wild Green Yonder 2009 2160p BluRay x265 HEVC AI 10bit AAC 5.1-4k电影下载

飞出个未来大电影4:绿色狂想4k Futurama Into The Wild Green Yonder 2009 2160p BluRay x265 HEVC AI 10bit AAC 5.1【4.1 GB】
飞出个未来大电影4:绿色狂想4k.txt
(124 Bytes)
回复

使用道具 举报

您需要登录后才可以回帖 登录 | 立即注册

本版积分规则


0关注

12粉丝

56帖子

热门图文主题
热门主题
社区广告

在线客服

在线客服

服务时间 9:00—18:00

返回顶部

关注微信公众号第一时间推送精彩

官方微信

手机访问

Hao4K影音

专注4k家庭影音,提供家庭影音社区,家庭影音器材库,影音问答平台,影音商城,服务千万家庭影音用户。

本站内容部分由用户自主分享和转载自互联网,转载目的在于传递更多信息,并不代表本网赞同其观点和对其真实性负责。

如有侵权、违反国家法律政策行为,请联系我们,我们会第一时间及时清除和处理!

举报反馈邮箱:admin@hao4k.cn

Copyright  2019-2020  Hao4K影音粤公网安备 44030302001429号    ( 粤ICP备18155646号-1 )|网站地图