专注4K家庭影音, 服务千万家庭影音发烧友!

飞出个未来大电影2:万背之兽 Futurama The Beast With a Billion Backs 2008 2160p 4k电影下载

碧池 发表于 2020-9-5 12:22:34 | 显示全部楼层
电影频道
电影封面:
片  名: 飞出个未来大电影2:万背之兽4k
电影分类: 动作 科幻 喜剧 动画 爱情片 
国  家: 美国 
年  代: 00年代
分 辨 率: 4K(3840x2160)
电影格式: MKV|REMUX 
画质标准: 其他 
音质编码: 其他AAC 
电影声道: 5.1声道 
帧数/FPS: 46.875 FPS
电影语言: 英文原版 
资源大小: 3.9 GB
导  演: Peter Avanzino
豆瓣评分: 8.4 分
中文字幕: -
剧情简介: 外星人打算侵略地球,他们运用超能力控制了主人公弗莱,并派其去说服人们离开地球前往一个假冒的天堂之地,只留下机器人接管。
飞出个未来:电影版2 / The Futurama Movie 2 / 飞出个未来大电影2/飞出个未来大电影2:万背之兽4k Futurama The Beast With a Billion Backs 2008 2160p WEB x265 HEVC AI 10bit AAC 5.1-4k电影信息
  1. Video
  2. ID : 1
  3. Format : HEVC
  4. Format/Info : High Efficiency Video Coding
  5. Codec ID : V_MPEGH/ISO/HEVC
  6. Duration : 1 h 28 min
  7. Bit rate : 6 001 kb/s
  8. Width : 3 840 pixels
  9. Height : 2 160 pixels
  10. Display aspect ratio : 16:9
  11. Frame rate mode : Constant
  12. Frame rate : 23.976 (24000/1001) FPS
  13. Color space : YUV
  14. Chroma subsampling : 4:2:0
  15. Bit depth : 10 bits
  16. Bits/(Pixel*Frame) : 0.030
  17. Stream size : 3.72 GiB (96%)
  18. Writing library : x265 3.2+9-971180b100f8:[Windows][MSVC 1923][64 bit] 10bit
  19. Encoding settings : cpuid=1111039 / frame-threads=3 / numa-pools=12 / wpp / no-pmode / no-pme / no-psnr / ssim / log-level=2 / input-csp=1 / input-res=3840x2160 / interlace=0 / total-frames=127771 / level-idc=0 / high-tier=1 / uhd-bd=0 / ref=4 / no-allow-non-conformance / no-repeat-headers / annexb / no-aud / no-hrd / info / hash=0 / no-temporal-layers / open-gop / min-keyint=23 / keyint=250 / gop-lookahead=0 / bframes=8 / b-adapt=2 / b-pyramid / bframe-bias=40 / rc-lookahead=80 / lookahead-slices=4 / scenecut=40 / radl=0 / no-splice / no-intra-refresh / ctu=64 / min-cu-size=8 / rect / no-amp / max-tu-size=32 / tu-inter-depth=1 / tu-intra-depth=1 / limit-tu=0 / rdoq-level=2 / dynamic-rd=0.00 / ssim-rd / signhide / no-tskip / nr-intra=0 / nr-inter=0 / constrained-intra / strong-intra-smoothing / max-merge=3 / limit-refs=3 / limit-modes / me=3 / subme=3 / merange=57 / temporal-mvp / no-frame-dup / no-hme / weightp / no-weightb / no-analyze-src-pics / deblock=0:0 / sao / no-sao-non-deblock / rd=4 / selective-sao=4 / early-skip / rskip / no-fast-intra / no-tskip-fast / no-cu-lossless / no-b-intra / splitrd-skip / rdpenalty=0 / psy-rd=2.45 / psy-rdoq=1.50 / no-rd-refine / no-lossless / cbqpoffs=0 / crqpoffs=0 / rc=abr / bitrate=6000 / qcomp=0.60 / qpstep=4 / stats-write=0 / stats-read=2 / cplxblur=20.0 / qblur=0.5 / ipratio=1.40 / pbratio=1.30 / aq-mode=3 / aq-strength=0.40 / cutree / zone-count=0 / no-strict-cbr / qg-size=32 / no-rc-grain / qpmax=69 / qpmin=0 / no-const-vbv / sar=0 / overscan=0 / videoformat=5 / range=0 / colorprim=2 / transfer=2 / colormatrix=2 / chromaloc=0 / display-window=0 / cll=0,0 / min-luma=0 / max-luma=1023 / log2-max-poc-lsb=8 / vui-timing-info / vui-hrd-info / slices=1 / no-opt-qp-pps / no-opt-ref-list-length-pps / multi-pass-opt-rps / scenecut-bias=0.05 / no-opt-cu-delta-qp / no-aq-motion / no-hdr / no-hdr-opt / no-dhdr10-opt / no-idr-recovery-sei / analysis-load / analysis-reuse-level=10 / scale-factor=0 / refine-intra=0 / refine-inter=0 / refine-mv=1 / refine-ctu-distortion=0 / limit-sao / ctu-info=0 / no-lowpass-dct / refine-analysis-type=0 / copy-pic=1 / max-ausize-factor=1.0 / no-dynamic-refine / no-single-sei / no-hevc-aq / no-svt / no-field / qp-adaptation-range=1.00
  20. Default : Yes
  21. Forced : No

  22. Audio
  23. ID : 2
  24. Format : AAC
  25. Format/Info : Advanced Audio Codec
  26. Format profile : LC
  27. Codec ID : A_AAC
  28. Duration : 1 h 28 min
  29. Bit rate : 265 kb/s
  30. Channel(s) : 6 channels
  31. Channel positions : Front: L C R, Side: L R, LFE
  32. Sampling rate : 48.0 kHz
  33. Frame rate : 46.875 FPS (1024 spf)
  34. Compression mode : Lossy
  35. Delay relative to video : 9 ms
  36. Stream size : 169 MiB (4%)
  37. Language : English
  38. Default : No
  39. Forced : No

  40. Subtitle #1
  41. ID : 3
  42. Format : UTF-8
  43. Codec ID : S_TEXT/UTF8
  44. Codec ID/Info : UTF-8 Plain Text
  45. Duration : 1 h 27 min
  46. Bit rate : 74 b/s
  47. Count of elements : 1488
  48. Stream size : 47.4 KiB (0%)
  49. Language : English
  50. Default : No
  51. Forced : No

  52. Subtitle #2
  53. ID : 4
  54. Format : UTF-8
  55. Codec ID : S_TEXT/UTF8
  56. Codec ID/Info : UTF-8 Plain Text
  57. Duration : 1 h 26 min
  58. Bit rate : 69 b/s
  59. Count of elements : 1043
  60. Stream size : 43.9 KiB (0%)
  61. Language : Czech
  62. Default : No
  63. Forced : No

  64. Subtitle #3
  65. ID : 5
  66. Format : UTF-8
  67. Codec ID : S_TEXT/UTF8
  68. Codec ID/Info : UTF-8 Plain Text
  69. Duration : 1 h 27 min
  70. Bit rate : 71 b/s
  71. Count of elements : 1213
  72. Stream size : 45.6 KiB (0%)
  73. Language : Danish
  74. Default : No
  75. Forced : No

  76. Subtitle #4
  77. ID : 6
  78. Format : UTF-8
  79. Codec ID : S_TEXT/UTF8
  80. Codec ID/Info : UTF-8 Plain Text
  81. Duration : 1 h 26 min
  82. Bit rate : 69 b/s
  83. Count of elements : 1071
  84. Stream size : 44.2 KiB (0%)
  85. Language : Dutch
  86. Default : No
  87. Forced : No

  88. Subtitle #5
  89. ID : 7
  90. Format : UTF-8
  91. Codec ID : S_TEXT/UTF8
  92. Codec ID/Info : UTF-8 Plain Text
  93. Duration : 1 h 25 min
  94. Bit rate : 76 b/s
  95. Count of elements : 1029
  96. Stream size : 48.0 KiB (0%)
  97. Language : Finnish
  98. Default : No
  99. Forced : No

  100. Subtitle #6
  101. ID : 8
  102. Format : UTF-8
  103. Codec ID : S_TEXT/UTF8
  104. Codec ID/Info : UTF-8 Plain Text
  105. Duration : 1 h 28 min
  106. Bit rate : 69 b/s
  107. Count of elements : 1243
  108. Stream size : 45.1 KiB (0%)
  109. Language : French
  110. Default : No
  111. Forced : No

  112. Subtitle #7
  113. ID : 9
  114. Format : UTF-8
  115. Codec ID : S_TEXT/UTF8
  116. Codec ID/Info : UTF-8 Plain Text
  117. Duration : 1 h 26 min
  118. Bit rate : 76 b/s
  119. Count of elements : 1094
  120. Stream size : 48.9 KiB (0%)
  121. Language : German
  122. Default : No
  123. Forced : No

  124. Subtitle #8
  125. ID : 10
  126. Format : UTF-8
  127. Codec ID : S_TEXT/UTF8
  128. Codec ID/Info : UTF-8 Plain Text
  129. Duration : 1 h 27 min
  130. Bit rate : 76 b/s
  131. Count of elements : 1223
  132. Stream size : 48.8 KiB (0%)
  133. Language : Hungarian
  134. Default : No
  135. Forced : No

  136. Subtitle #9
  137. ID : 11
  138. Format : UTF-8
  139. Codec ID : S_TEXT/UTF8
  140. Codec ID/Info : UTF-8 Plain Text
  141. Duration : 1 h 26 min
  142. Bit rate : 77 b/s
  143. Count of elements : 1233
  144. Stream size : 48.9 KiB (0%)
  145. Language : Italian
  146. Default : No
  147. Forced : No

  148. Subtitle #10
  149. ID : 12
  150. Format : UTF-8
  151. Codec ID : S_TEXT/UTF8
  152. Codec ID/Info : UTF-8 Plain Text
  153. Duration : 1 h 27 min
  154. Bit rate : 68 b/s
  155. Count of elements : 1213
  156. Stream size : 43.6 KiB (0%)
  157. Language : Norwegian
  158. Default : No
  159. Forced : No

  160. Subtitle #11
  161. ID : 13
  162. Format : UTF-8
  163. Codec ID : S_TEXT/UTF8
  164. Codec ID/Info : UTF-8 Plain Text
  165. Duration : 1 h 26 min
  166. Bit rate : 126 b/s
  167. Count of elements : 1039
  168. Stream size : 80.3 KiB (0%)
  169. Language : Russian
  170. Default : No
  171. Forced : No

  172. Subtitle #12
  173. ID : 14
  174. Format : UTF-8
  175. Codec ID : S_TEXT/UTF8
  176. Codec ID/Info : UTF-8 Plain Text
  177. Duration : 1 h 26 min
  178. Bit rate : 76 b/s
  179. Count of elements : 1033
  180. Stream size : 48.6 KiB (0%)
  181. Language : Spanish
  182. Default : No
  183. Forced : No

  184. Subtitle #13
  185. ID : 15
  186. Format : UTF-8
  187. Codec ID : S_TEXT/UTF8
  188. Codec ID/Info : UTF-8 Plain Text
  189. Duration : 1 h 26 min
  190. Bit rate : 72 b/s
  191. Count of elements : 1121
  192. Stream size : 45.8 KiB (0%)
  193. Language : Swedish
  194. Default : No
  195. Forced : No
复制代码

飞出个未来:电影版2 / The Futurama Movie 2 / 飞出个未来大电影2/飞出个未来大电影2:万背之兽4k Futurama The Beast With a Billion Backs 2008 2160p WEB x265 HEVC AI 10bit AAC 5.1-4k电影下载

飞出个未来大电影2:万背之兽4k Futurama The Beast With a Billion Backs 2008 2160p WEB x265 HEVC AI 10bit AAC 5.1【3.9 GB】
飞出个未来大电影2:万背之兽4k.txt
(124 Bytes)
回复

使用道具 举报

发烧友评论1

倒序浏览
ts52tl 发表于 2020-9-7 18:02:54 | 显示全部楼层
再来再来看看
回复 支持 反对

使用道具 举报

您需要登录后才可以回帖 登录 | 立即注册

本版积分规则


0关注

20粉丝

68帖子

热门图文主题
热门主题
社区广告

在线客服

在线客服

服务时间 9:00—18:00

返回顶部

关注微信公众号第一时间推送精彩

官方微信

手机访问

Hao4K影音

专注4k家庭影音,提供家庭影音社区,家庭影音器材库,影音问答平台,影音商城,服务千万家庭影音用户。

本站内容部分由用户自主分享和转载自互联网,转载目的在于传递更多信息,并不代表本网赞同其观点和对其真实性负责。

如有侵权、违反国家法律政策行为,请联系我们,我们会第一时间及时清除和处理!

举报反馈邮箱:admin@hao4k.cn

Copyright  2019-2020  Hao4K影音粤公网安备 44030302001429号    ( 粤ICP备18155646号-1 )|网站地图