专注4K家庭影音, 服务千万家庭影音发烧友!

[待验证4K资源] 歪小子斯科特对抗全世界4k Scott Pilgrim vs. the World 2010 2160p 4k电影下载

碧池 发表于 2020-9-5 16:42:20 | 显示全部楼层
电影频道
电影封面:
片  名: 歪小子斯科特对抗全世界4k
电影分类: 动作 喜剧 奇幻 爱情片 
国  家: 美国 英国 加拿大 
年  代: 2010年
分 辨 率: 4K(3840x2160)
电影格式: MKV|REMUX 
画质标准: 其他 
音质编码: 其他AAC 
电影声道: 5.1声道 
帧数/FPS: 23.976 FPS
电影语言: 英文原版 
资源大小: 7.7 GB
导  演: 埃德加·赖特
豆瓣评分: 7.1 分
中文字幕: /thread-49664-1-1.html
剧情简介: 梦想成为歌手的摇滚青年斯科特(迈克尔·塞拉 Michael Cera 饰)有一支乐队几个死党和一段不堪回首的恋情,他深爱的前女友安维·亚当斯(布丽·拉尔森 Brie Larson 饰)被自己崇拜的同行横刀夺爱。正当悲观的他陷入了深深的感情阴影中无法自拔时,高中生少女奈福斯·周(爱伦·王 Ellen Wong 饰)和梦中情人拉蒙娜·花(玛丽·伊丽莎白·文斯蒂德 Mary Elizabeth Winstead 饰)同时出现在了他的眼前.斯科特对花一见钟情,但令他没有想到的是,他必须先打败她的7个邪恶前男友,才能得到花的芳心。而此时,安维亚当斯的归来和奈福斯·周的乱入又为这看似不可能完成的任务增加了难度。
  影片使用了例如主角三条命、打BOSS升级掉金币、战败重新读档等经典的格斗游戏桥段,使得整个电影充斥着浓浓的漫画风格,游戏爱好者绝对能从中找到共鸣,不容错过。
爆女大格斗(港) / 歪小子斯科特(台) / 斯科特对抗全世界/歪小子斯科特对抗全世界4k Scott Pilgrim vs. the World (2010) + Featurettes 2160p BluRay x265 HEVC AI 10bit AAC 5.1-4k电影信息
  1. Video
  2. ID                                       : 1
  3. Format                                   : HEVC
  4. Format/Info                              : High Efficiency Video Coding
  5. Codec ID                                 : V_MPEGH/ISO/HEVC
  6. Duration                                 : 1 h 52 min
  7. Bit rate                                 : 6 001 kb/s
  8. Width                                    : 3 840 pixels
  9. Height                                   : 2 080 pixels
  10. Display aspect ratio                     : 1.85:1
  11. Frame rate mode                          : Constant
  12. Frame rate                               : 23.976 (24000/1001) FPS
  13. Color space                              : YUV
  14. Chroma subsampling                       : 4:2:0
  15. Bit depth                                : 10 bits
  16. Bits/(Pixel*Frame)                       : 0.031
  17. Stream size                              : 4.71 GiB (86%)
  18. Writing library                          : x265 3.2+9-971180b100f8:[Windows][GCC 9.2.0][64 bit] 10bit
  19. Encoding settings                        : cpuid=1111039 / frame-threads=4 / numa-pools=16 / wpp / no-pmode / no-pme / no-psnr / ssim / log-level=2 / input-csp=1 / input-res=3840x2080 / interlace=0 / total-frames=161689 / level-idc=0 / high-tier=1 / uhd-bd=0 / ref=4 / no-allow-non-conformance / no-repeat-headers / annexb / no-aud / no-hrd / info / hash=0 / no-temporal-layers / open-gop / min-keyint=23 / keyint=250 / gop-lookahead=0 / bframes=8 / b-adapt=2 / b-pyramid / bframe-bias=40 / rc-lookahead=80 / lookahead-slices=4 / scenecut=40 / radl=0 / no-splice / no-intra-refresh / ctu=64 / min-cu-size=8 / rect / no-amp / max-tu-size=32 / tu-inter-depth=1 / tu-intra-depth=1 / limit-tu=0 / rdoq-level=2 / dynamic-rd=0.00 / ssim-rd / signhide / no-tskip / nr-intra=0 / nr-inter=0 / constrained-intra / strong-intra-smoothing / max-merge=3 / limit-refs=3 / limit-modes / me=3 / subme=3 / merange=57 / temporal-mvp / no-frame-dup / no-hme / weightp / no-weightb / no-analyze-src-pics / deblock=0:0 / sao / no-sao-non-deblock / rd=4 / selective-sao=4 / early-skip / rskip / no-fast-intra / no-tskip-fast / no-cu-lossless / no-b-intra / splitrd-skip / rdpenalty=0 / psy-rd=3.50 / psy-rdoq=2.50 / no-rd-refine / no-lossless / cbqpoffs=0 / crqpoffs=0 / rc=abr / bitrate=6000 / qcomp=0.60 / qpstep=4 / stats-write=0 / stats-read=2 / cplxblur=20.0 / qblur=0.5 / ipratio=1.40 / pbratio=1.30 / aq-mode=3 / aq-strength=0.40 / cutree / zone-count=0 / no-strict-cbr / qg-size=32 / no-rc-grain / qpmax=69 / qpmin=0 / no-const-vbv / sar=0 / overscan=0 / videoformat=5 / range=0 / colorprim=2 / transfer=2 / colormatrix=2 / chromaloc=0 / display-window=0 / cll=0,0 / min-luma=0 / max-luma=1023 / log2-max-poc-lsb=8 / vui-timing-info / vui-hrd-info / slices=1 / no-opt-qp-pps / no-opt-ref-list-length-pps / multi-pass-opt-rps / scenecut-bias=0.05 / no-opt-cu-delta-qp / no-aq-motion / no-hdr / no-hdr-opt / no-dhdr10-opt / no-idr-recovery-sei / analysis-load / analysis-reuse-level=10 / scale-factor=0 / refine-intra=0 / refine-inter=0 / refine-mv=1 / refine-ctu-distortion=0 / limit-sao / ctu-info=0 / no-lowpass-dct / refine-analysis-type=0 / copy-pic=1 / max-ausize-factor=1.0 / no-dynamic-refine / no-single-sei / no-hevc-aq / no-svt / no-field / qp-adaptation-range=1.00
  20. Default                                  : Yes
  21. Forced                                   : No

  22. Audio #1
  23. ID                                       : 2
  24. Format                                   : AAC
  25. Format/Info                              : Advanced Audio Codec
  26. Format profile                           : LC
  27. Codec ID                                 : A_AAC
  28. Duration                                 : 1 h 52 min
  29. Bit rate                                 : 556 kb/s
  30. Channel(s)                               : 6 channels
  31. Channel positions                        : Front: L C R, Side: L R, LFE
  32. Sampling rate                            : 48.0 kHz
  33. Frame rate                               : 46.875 FPS (1024 spf)
  34. Compression mode                         : Lossy
  35. Delay relative to video                  : 9 ms
  36. Stream size                              : 447 MiB (8%)
  37. Title                                    : Surround 5.1
  38. Language                                 : English
  39. Default                                  : No
  40. Forced                                   : No

  41. Audio #2
  42. ID                                       : 3
  43. Format                                   : AAC
  44. Format/Info                              : Advanced Audio Codec
  45. Format profile                           : LC
  46. Codec ID                                 : A_AAC
  47. Duration                                 : 1 h 52 min
  48. Bit rate                                 : 87.7 kb/s
  49. Channel(s)                               : 2 channels
  50. Channel positions                        : Front: L R
  51. Sampling rate                            : 48.0 kHz
  52. Frame rate                               : 46.875 FPS (1024 spf)
  53. Compression mode                         : Lossy
  54. Delay relative to video                  : 9 ms
  55. Stream size                              : 70.5 MiB (1%)
  56. Language                                 : Spanish
  57. Default                                  : No
  58. Forced                                   : No

  59. Audio #3
  60. ID                                       : 4
  61. Format                                   : AAC
  62. Format/Info                              : Advanced Audio Codec
  63. Format profile                           : LC
  64. Codec ID                                 : A_AAC
  65. Duration                                 : 1 h 52 min
  66. Bit rate                                 : 89.2 kb/s
  67. Channel(s)                               : 2 channels
  68. Channel positions                        : Front: L R
  69. Sampling rate                            : 48.0 kHz
  70. Frame rate                               : 46.875 FPS (1024 spf)
  71. Compression mode                         : Lossy
  72. Delay relative to video                  : 9 ms
  73. Stream size                              : 71.7 MiB (1%)
  74. Language                                 : French
  75. Default                                  : No
  76. Forced                                   : No

  77. Audio #4
  78. ID                                       : 5
  79. Format                                   : AAC
  80. Format/Info                              : Advanced Audio Codec
  81. Format profile                           : HE-AAC / LC
  82. Codec ID                                 : A_AAC
  83. Duration                                 : 1 h 52 min
  84. Bit rate                                 : 43.5 kb/s
  85. Channel(s)                               : 2 channels
  86. Channel positions                        : Front: L R
  87. Sampling rate                            : 48.0 kHz / 24.0 kHz
  88. Frame rate                               : 23.438 FPS (1024 spf)
  89. Compression mode                         : Lossy
  90. Delay relative to video                  : 31 ms
  91. Stream size                              : 35.0 MiB (1%)
  92. Title                                    : Feature Commentary
  93. Language                                 : English
  94. Default                                  : No
  95. Forced                                   : No

  96. Audio #5
  97. ID                                       : 6
  98. Format                                   : AAC
  99. Format/Info                              : Advanced Audio Codec
  100. Format profile                           : HE-AAC / LC
  101. Codec ID                                 : A_AAC
  102. Duration                                 : 1 h 52 min
  103. Bit rate                                 : 46.0 kb/s
  104. Channel(s)                               : 2 channels
  105. Channel positions                        : Front: L R
  106. Sampling rate                            : 48.0 kHz / 24.0 kHz
  107. Frame rate                               : 23.438 FPS (1024 spf)
  108. Compression mode                         : Lossy
  109. Delay relative to video                  : 31 ms
  110. Stream size                              : 36.9 MiB (1%)
  111. Title                                    : Technical Commentary
  112. Language                                 : English
  113. Default                                  : No
  114. Forced                                   : No

  115. Audio #6
  116. ID                                       : 7
  117. Format                                   : AAC
  118. Format/Info                              : Advanced Audio Codec
  119. Format profile                           : HE-AAC / LC
  120. Codec ID                                 : A_AAC
  121. Duration                                 : 1 h 52 min
  122. Bit rate                                 : 45.2 kb/s
  123. Channel(s)                               : 2 channels
  124. Channel positions                        : Front: L R
  125. Sampling rate                            : 48.0 kHz / 24.0 kHz
  126. Frame rate                               : 23.438 FPS (1024 spf)
  127. Compression mode                         : Lossy
  128. Delay relative to video                  : 31 ms
  129. Stream size                              : 36.3 MiB (1%)
  130. Title                                    : Cast Commentary
  131. Language                                 : English
  132. Default                                  : No
  133. Forced                                   : No

  134. Audio #7
  135. ID                                       : 8
  136. Format                                   : AAC
  137. Format/Info                              : Advanced Audio Codec
  138. Format profile                           : HE-AAC / LC
  139. Codec ID                                 : A_AAC
  140. Duration                                 : 1 h 52 min
  141. Bit rate                                 : 45.0 kb/s
  142. Channel(s)                               : 2 channels
  143. Channel positions                        : Front: L R
  144. Sampling rate                            : 48.0 kHz / 24.0 kHz
  145. Frame rate                               : 23.438 FPS (1024 spf)
  146. Compression mode                         : Lossy
  147. Delay relative to video                  : 31 ms
  148. Stream size                              : 36.2 MiB (1%)
  149. Title                                    : Cast Commentary 2
  150. Language                                 : English
  151. Default                                  : No
  152. Forced                                   : No

  153. Subtitle #1
  154. ID                                       : 9
  155. Format                                   : PGS
  156. Muxing mode                              : zlib
  157. Codec ID                                 : S_HDMV/PGS
  158. Codec ID/Info                            : Picture based subtitle format used on BDs/HD-DVDs
  159. Duration                                 : 1 h 48 min
  160. Bit rate                                 : 51.5 kb/s
  161. Count of elements                        : 4320
  162. Stream size                              : 40.0 MiB (1%)
  163. Language                                 : English
  164. Default                                  : No
  165. Forced                                   : No

  166. Subtitle #2
  167. ID                                       : 10
  168. Format                                   : VobSub
  169. Muxing mode                              : zlib
  170. Codec ID                                 : S_VOBSUB
  171. Codec ID/Info                            : Picture based subtitle format used on DVDs
  172. Duration                                 : 1 h 51 min
  173. Bit rate                                 : 11.6 kb/s
  174. Count of elements                        : 2006
  175. Stream size                              : 9.29 MiB (0%)
  176. Language                                 : Spanish
  177. Default                                  : No
  178. Forced                                   : No

  179. Subtitle #3
  180. ID                                       : 11
  181. Format                                   : VobSub
  182. Muxing mode                              : zlib
  183. Codec ID                                 : S_VOBSUB
  184. Codec ID/Info                            : Picture based subtitle format used on DVDs
  185. Duration                                 : 1 h 51 min
  186. Bit rate                                 : 12.0 kb/s
  187. Count of elements                        : 1857
  188. Stream size                              : 9.56 MiB (0%)
  189. Language                                 : French
  190. Default                                  : No
  191. Forced                                   : No

  192. Subtitle #4
  193. ID                                       : 12
  194. Format                                   : VobSub
  195. Muxing mode                              : zlib
  196. Codec ID                                 : S_VOBSUB
  197. Codec ID/Info                            : Picture based subtitle format used on DVDs
  198. Duration                                 : 1 h 52 min
  199. Bit rate                                 : 4 879 b/s
  200. Count of elements                        : 331
  201. Stream size                              : 3.91 MiB (0%)
  202. Language                                 : English
  203. Default                                  : No
  204. Forced                                   : No

  205. Subtitle #5
  206. ID                                       : 13
  207. Format                                   : VobSub
  208. Muxing mode                              : zlib
  209. Codec ID                                 : S_VOBSUB
  210. Codec ID/Info                            : Picture based subtitle format used on DVDs
  211. Duration                                 : 1 h 51 min
  212. Bit rate                                 : 450 b/s
  213. Count of elements                        : 69
  214. Stream size                              : 367 KiB (0%)
  215. Language                                 : Spanish
  216. Default                                  : No
  217. Forced                                   : No

  218. Subtitle #6
  219. ID                                       : 14
  220. Format                                   : VobSub
  221. Muxing mode                              : zlib
  222. Codec ID                                 : S_VOBSUB
  223. Codec ID/Info                            : Picture based subtitle format used on DVDs
  224. Duration                                 : 1 h 51 min
  225. Bit rate                                 : 507 b/s
  226. Count of elements                        : 77
  227. Stream size                              : 413 KiB (0%)
  228. Language                                 : French
  229. Default                                  : No
  230. Forced                                   : No

  231. Subtitle #7
  232. ID                                       : 15
  233. Format                                   : UTF-8
  234. Codec ID                                 : S_TEXT/UTF8
  235. Codec ID/Info                            : UTF-8 Plain Text
  236. Duration                                 : 1 h 51 min
  237. Bit rate                                 : 113 b/s
  238. Count of elements                        : 1777
  239. Stream size                              : 92.7 KiB (0%)
  240. Language                                 : Arabic
  241. Default                                  : No
  242. Forced                                   : No

  243. Subtitle #8
  244. ID                                       : 16
  245. Format                                   : UTF-8
  246. Codec ID                                 : S_TEXT/UTF8
  247. Codec ID/Info                            : UTF-8 Plain Text
  248. Duration                                 : 1 h 48 min
  249. Bit rate                                 : 71 b/s
  250. Count of elements                        : 1419
  251. Stream size                              : 56.6 KiB (0%)
  252. Language                                 : Danish
  253. Default                                  : No
  254. Forced                                   : No

  255. Subtitle #9
  256. ID                                       : 17
  257. Format                                   : UTF-8
  258. Codec ID                                 : S_TEXT/UTF8
  259. Codec ID/Info                            : UTF-8 Plain Text
  260. Duration                                 : 1 h 52 min
  261. Bit rate                                 : 63 b/s
  262. Count of elements                        : 1765
  263. Stream size                              : 52.4 KiB (0%)
  264. Language                                 : Dutch
  265. Default                                  : No
  266. Forced                                   : No

  267. Subtitle #10
  268. ID                                       : 18
  269. Format                                   : UTF-8
  270. Codec ID                                 : S_TEXT/UTF8
  271. Codec ID/Info                            : UTF-8 Plain Text
  272. Duration                                 : 1 h 48 min
  273. Bit rate                                 : 112 b/s
  274. Count of elements                        : 2039
  275. Stream size                              : 89.5 KiB (0%)
  276. Language                                 : Persian
  277. Default                                  : No
  278. Forced                                   : No

  279. Subtitle #11
  280. ID                                       : 19
  281. Format                                   : UTF-8
  282. Codec ID                                 : S_TEXT/UTF8
  283. Codec ID/Info                            : UTF-8 Plain Text
  284. Duration                                 : 1 h 51 min
  285. Bit rate                                 : 70 b/s
  286. Count of elements                        : 1768
  287. Stream size                              : 57.7 KiB (0%)
  288. Language                                 : German
  289. Default                                  : No
  290. Forced                                   : No

  291. Subtitle #12
  292. ID                                       : 20
  293. Format                                   : UTF-8
  294. Codec ID                                 : S_TEXT/UTF8
  295. Codec ID/Info                            : UTF-8 Plain Text
  296. Duration                                 : 1 h 48 min
  297. Bit rate                                 : 128 b/s
  298. Count of elements                        : 1865
  299. Stream size                              : 102 KiB (0%)
  300. Language                                 : Greek
  301. Default                                  : No
  302. Forced                                   : No

  303. Subtitle #13
  304. ID                                       : 21
  305. Format                                   : UTF-8
  306. Codec ID                                 : S_TEXT/UTF8
  307. Codec ID/Info                            : UTF-8 Plain Text
  308. Duration                                 : 1 h 48 min
  309. Bit rate                                 : 95 b/s
  310. Count of elements                        : 1921
  311. Stream size                              : 76.0 KiB (0%)
  312. Language                                 : Hebrew
  313. Default                                  : No
  314. Forced                                   : No

  315. Subtitle #14
  316. ID                                       : 22
  317. Format                                   : UTF-8
  318. Codec ID                                 : S_TEXT/UTF8
  319. Codec ID/Info                            : UTF-8 Plain Text
  320. Duration                                 : 1 h 48 min
  321. Bit rate                                 : 79 b/s
  322. Count of elements                        : 2055
  323. Stream size                              : 63.4 KiB (0%)
  324. Language                                 : Indonesian
  325. Default                                  : No
  326. Forced                                   : No

  327. Subtitle #15
  328. ID                                       : 23
  329. Format                                   : UTF-8
  330. Codec ID                                 : S_TEXT/UTF8
  331. Codec ID/Info                            : UTF-8 Plain Text
  332. Duration                                 : 1 h 48 min
  333. Bit rate                                 : 79 b/s
  334. Count of elements                        : 2020
  335. Stream size                              : 63.6 KiB (0%)
  336. Language                                 : Italian
  337. Default                                  : No
  338. Forced                                   : No

  339. Subtitle #16
  340. ID                                       : 24
  341. Format                                   : UTF-8
  342. Codec ID                                 : S_TEXT/UTF8
  343. Codec ID/Info                            : UTF-8 Plain Text
  344. Duration                                 : 1 h 4 min
  345. Bit rate                                 : 70 b/s
  346. Count of elements                        : 985
  347. Stream size                              : 33.2 KiB (0%)
  348. Language                                 : Malay
  349. Default                                  : No
  350. Forced                                   : No

  351. Subtitle #17
  352. ID                                       : 25
  353. Format                                   : UTF-8
  354. Codec ID                                 : S_TEXT/UTF8
  355. Codec ID/Info                            : UTF-8 Plain Text
  356. Duration                                 : 1 h 48 min
  357. Bit rate                                 : 66 b/s
  358. Count of elements                        : 1776
  359. Stream size                              : 53.0 KiB (0%)
  360. Language                                 : Norwegian
  361. Default                                  : No
  362. Forced                                   : No

  363. Subtitle #18
  364. ID                                       : 26
  365. Format                                   : UTF-8
  366. Codec ID                                 : S_TEXT/UTF8
  367. Codec ID/Info                            : UTF-8 Plain Text
  368. Duration                                 : 1 h 48 min
  369. Bit rate                                 : 57 b/s
  370. Count of elements                        : 1033
  371. Stream size                              : 45.4 KiB (0%)
  372. Language                                 : Swedish
  373. Default                                  : No
  374. Forced                                   : No

  375. Subtitle #19
  376. ID                                       : 27
  377. Format                                   : UTF-8
  378. Codec ID                                 : S_TEXT/UTF8
  379. Codec ID/Info                            : UTF-8 Plain Text
  380. Duration                                 : 1 h 52 min
  381. Bit rate                                 : 175 b/s
  382. Count of elements                        : 1868
  383. Stream size                              : 144 KiB (0%)
  384. Language                                 : Thai
  385. Default                                  : No
  386. Forced                                   : No

  387. Subtitle #20
  388. ID                                       : 28
  389. Format                                   : UTF-8
  390. Codec ID                                 : S_TEXT/UTF8
  391. Codec ID/Info                            : UTF-8 Plain Text
  392. Duration                                 : 1 h 48 min
  393. Bit rate                                 : 108 b/s
  394. Count of elements                        : 1970
  395. Stream size                              : 86.1 KiB (0%)
  396. Language                                 : Vietnamese
  397. Default                                  : No
  398. Forced                                   : No

  399. Menu
  400. 00:00:00.000                             : en:Chapter 01
  401. 00:07:24.652                             : en:Chapter 02
  402. 00:13:14.418                             : en:Chapter 03
  403. 00:20:01.241                             : en:Chapter 04
  404. 00:26:00.934                             : en:Chapter 05
  405. 00:30:49.973                             : en:Chapter 06
  406. 00:38:53.039                             : en:Chapter 07
  407. 00:45:25.681                             : en:Chapter 08
  408. 00:50:18.515                             : en:Chapter 09
  409. 00:53:55.273                             : en:Chapter 10
  410. 00:59:16.219                             : en:Chapter 11
  411. 01:03:10.328                             : en:Chapter 12
  412. 01:08:05.206                             : en:Chapter 13
  413. 01:14:23.375                             : en:Chapter 14
  414. 01:20:19.022                             : en:Chapter 15
  415. 01:27:47.303                             : en:Chapter 16
  416. 01:30:43.438                             : en:Chapter 17
  417. 01:39:14.198                             : en:Chapter 18
  418. 01:40:49.793                             : en:Chapter 19
  419. 01:48:34.466                             : en:Chapter 20
  420. 01:52:16.896                             : en:Chapter 21
复制代码

爆女大格斗(港) / 歪小子斯科特(台) / 斯科特对抗全世界/歪小子斯科特对抗全世界4k Scott Pilgrim vs. the World (2010) + Featurettes 2160p BluRay x265 HEVC AI 10bit AAC 5.1-4k电影下载

歪小子斯科特对抗全世界4k Scott Pilgrim vs. the World (2010) + Featurettes 2160p BluRay x265 HEVC AI 10bit AAC 5.1【7.7 GB】
歪小子斯科特对抗全世界4k.txt
(118 Bytes)
回复

使用道具 举报

发烧友评论3

倒序浏览
kkk9889 发表于 2020-9-11 13:37:53 | 显示全部楼层
没看过!下载下!
回复 支持 反对

使用道具 举报

sonic_eldly 发表于 2020-9-6 09:23:43 | 显示全部楼层
很cool的一部电影
回复 支持 反对

使用道具 举报

您需要登录后才可以回帖 登录 | 立即注册

本版积分规则


0关注

13粉丝

56帖子

热门图文主题
热门主题
社区广告

在线客服

在线客服

服务时间 9:00—18:00

返回顶部

关注微信公众号第一时间推送精彩

官方微信

手机访问

Hao4K影音

专注4k家庭影音,提供家庭影音社区,家庭影音器材库,影音问答平台,影音商城,服务千万家庭影音用户。

本站内容部分由用户自主分享和转载自互联网,转载目的在于传递更多信息,并不代表本网赞同其观点和对其真实性负责。

如有侵权、违反国家法律政策行为,请联系我们,我们会第一时间及时清除和处理!

举报反馈邮箱:admin@hao4k.cn

Copyright  2019-2020  Hao4K影音粤公网安备 44030302001429号    ( 粤ICP备18155646号-1 )|网站地图