专注4K家庭影音, 服务千万家庭影音发烧友!

[美剧] 眼镜蛇 第二季4k Cobra.Kai.S02.2160p.NF.WEBRip.DDP5.1.x265-4k电视剧下载

大红色 发表于 2020-9-5 17:46:11 | 显示全部楼层
电视剧频道
电视剧封面:
电视剧名: 眼镜蛇 第二季4k
年  代: 2019  
国  家: 美国
类  别: 动作 喜剧 
语  言: 英语
字  幕: 英文原版
上映日期: 2019-05-10
文件格式: mkv    
视频效果: 4K(3840x2160)    
资源大小: 40.10 GB
片  长: 30 分钟
导  演: 乔恩·赫维兹
剧情简介:  延续第一季的结尾,第二季是两家道馆的较量。在18岁以下的全谷空手道锦标赛上,眼镜蛇获胜后,约翰尼质疑他的道馆哲学,并面对他过去的自己。丹尼尔寻找正确的方式,来面对眼镜蛇的定位。本剧将由Classic字幕组翻译,已续订第三季!
眼镜蛇 第二季4k Cobra.Kai.S02.2160p.NF.WEBRip.DDP5.1.x265-4k电视剧信息
  1. Video
  2. ID : 1
  3. Format : HEVC
  4. Format/Info : High Efficiency Video Coding
  5. Format profile : Main 10@L5.1@High
  6. Codec ID : V_MPEGH/ISO/HEVC
  7. Duration : 33 min 40 s
  8. Bit rate : 20.2 Mb/s
  9. Width : 3 840 pixels
  10. Height : 2 160 pixels
  11. Display aspect ratio : 16:9
  12. Frame rate mode : Constant
  13. Frame rate : 23.976 (24000/1001) FPS
  14. Color space : YUV
  15. Chroma subsampling : 4:2:0
  16. Bit depth : 10 bits
  17. Bits/(Pixel*Frame) : 0.102
  18. Stream size : 4.76 GiB (97%)
  19. Writing library : x265 3.0_Au+4-dcbec33bfb0f:[Windows][GCC 8.2.1][64 bit] 10bit
  20. Encoding settings : cpuid=1111039 / frame-threads=4 / numa-pools=28 / wpp / no-pmode / no-pme / no-psnr / no-ssim / log-level=2 / input-csp=1 / input-res=3840x2160 / interlace=0 / total-frames=48432 / level-idc=51 / high-tier=1 / uhd-bd=0 / ref=5 / no-allow-non-conformance / repeat-headers / annexb / aud / hrd / info / hash=0 / no-temporal-layers / open-gop / min-keyint=23 / keyint=250 / gop-lookahead=0 / bframes=8 / b-adapt=2 / b-pyramid / bframe-bias=0 / rc-lookahead=40 / lookahead-slices=8 / scenecut=40 / radl=0 / no-splice / no-intra-refresh / ctu=64 / min-cu-size=8 / no-rect / no-amp / max-tu-size=32 / tu-inter-depth=4 / tu-intra-depth=4 / limit-tu=4 / rdoq-level=0 / dynamic-rd=0.00 / no-ssim-rd / signhide / no-tskip / nr-intra=0 / nr-inter=0 / no-constrained-intra / strong-intra-smoothing / max-merge=4 / limit-refs=3 / no-limit-modes / me=1 / subme=5 / merange=57 / temporal-mvp / weightp / weightb / no-analyze-src-pics / deblock=-3:-3 / no-sao / no-sao-non-deblock / rd=4 / no-early-skip / rskip / no-fast-intra / no-tskip-fast / no-cu-lossless / b-intra / no-splitrd-skip / rdpenalty=0 / psy-rd=2.00 / psy-rdoq=0.00 / no-rd-refine / no-lossless / cbqpoffs=0 / crqpoffs=0 / rc=crf / crf=19.0 / qcomp=0.60 / qpstep=4 / stats-write=0 / stats-read=0 / vbv-maxrate=160000 / vbv-bufsize=160000 / vbv-init=0.9 / crf-max=0.0 / crf-min=0.0 / ipratio=1.30 / pbratio=1.20 / aq-mode=1 / aq-strength=0.85 / no-cutree / zone-count=0 / no-strict-cbr / qg-size=32 / no-rc-grain / qpmax=69 / qpmin=0 / no-const-vbv / sar=1 / overscan=0 / videoformat=5 / range=0 / colorprim=1 / transfer=1 / colormatrix=1 / chromaloc=0 / display-window=0 / max-cll=0,0 / min-luma=0 / max-luma=1023 / log2-max-poc-lsb=8 / vui-timing-info / vui-hrd-info / slices=1 / no-opt-qp-pps / no-opt-ref-list-length-pps / no-multi-pass-opt-rps / scenecut-bias=0.05 / no-opt-cu-delta-qp / no-aq-motion / no-hdr / no-hdr-opt / no-dhdr10-opt / no-idr-recovery-sei / analysis-reuse-level=5 / scale-factor=0 / refine-intra=0 / refine-inter=0 / refine-mv=0 / refine-ctu-distortion=0 / no-limit-sao / ctu-info=0 / no-lowpass-dct / refine-analysis-type=0 / copy-pic=1 / max-ausize-factor=1.0 / no-dynamic-refine / no-single-sei / no-hevc-aq / qp-adaptation-range=1.00
  21. Default : Yes
  22. Forced : No
  23. Color range : Limited
  24. Color primaries : BT.709
  25. Transfer characteristics : BT.709
  26. Matrix coefficients : BT.709

  27. Audio
  28. ID : 2
  29. Format : E-AC-3
  30. Format/Info : Enhanced AC-3
  31. Commercial name : Dolby Digital Plus
  32. Codec ID : A_EAC3
  33. Duration : 33 min 40 s
  34. Bit rate mode : Constant
  35. Bit rate : 640 kb/s
  36. Channel(s) : 6 channels
  37. Channel layout : L R C LFE Ls Rs
  38. Sampling rate : 48.0 kHz
  39. Frame rate : 31.250 FPS (1536 SPF)
  40. Compression mode : Lossy
  41. Stream size : 154 MiB (3%)
  42. Title : English
  43. Language : English
  44. Service kind : Complete Main
  45. Default : Yes
  46. Forced : No

  47. Text #1
  48. ID : 3
  49. Format : UTF-8
  50. Codec ID : S_TEXT/UTF8
  51. Codec ID/Info : UTF-8 Plain Text
  52. Duration : 834 ms
  53. Bit rate : 153 b/s
  54. Count of elements : 1
  55. Stream size : 16.0 Bytes (0%)
  56. Title : Forced
  57. Language : English
  58. Default : No
  59. Forced : Yes

  60. Text #2
  61. ID : 4
  62. Format : UTF-8
  63. Codec ID : S_TEXT/UTF8
  64. Codec ID/Info : UTF-8 Plain Text
  65. Duration : 31 min 49 s
  66. Bit rate : 63 b/s
  67. Count of elements : 503
  68. Stream size : 14.9 KiB (0%)
  69. Title : SDH
  70. Language : English
  71. Default : No
  72. Forced : No

  73. Text #3
  74. ID : 5
  75. Format : UTF-8
  76. Codec ID : S_TEXT/UTF8
  77. Codec ID/Info : UTF-8 Plain Text
  78. Duration : 33 min 3 s
  79. Bit rate : 72 b/s
  80. Count of elements : 356
  81. Stream size : 17.5 KiB (0%)
  82. Language : Arabic
  83. Default : No
  84. Forced : No

  85. Text #4
  86. ID : 6
  87. Format : UTF-8
  88. Codec ID : S_TEXT/UTF8
  89. Codec ID/Info : UTF-8 Plain Text
  90. Duration : 33 min 3 s
  91. Bit rate : 39 b/s
  92. Count of elements : 349
  93. Stream size : 9.47 KiB (0%)
  94. Language : Czech
  95. Default : No
  96. Forced : No

  97. Text #5
  98. ID : 7
  99. Format : UTF-8
  100. Codec ID : S_TEXT/UTF8
  101. Codec ID/Info : UTF-8 Plain Text
  102. Duration : 33 min 4 s
  103. Bit rate : 39 b/s
  104. Count of elements : 323
  105. Stream size : 9.65 KiB (0%)
  106. Language : Danish
  107. Default : No
  108. Forced : No

  109. Text #6
  110. ID : 8
  111. Format : UTF-8
  112. Codec ID : S_TEXT/UTF8
  113. Codec ID/Info : UTF-8 Plain Text
  114. Duration : 33 min 1 s
  115. Bit rate : 41 b/s
  116. Count of elements : 325
  117. Stream size : 9.97 KiB (0%)
  118. Language : German
  119. Default : No
  120. Forced : No

  121. Text #7
  122. ID : 9
  123. Format : UTF-8
  124. Codec ID : S_TEXT/UTF8
  125. Codec ID/Info : UTF-8 Plain Text
  126. Duration : 33 min 3 s
  127. Bit rate : 68 b/s
  128. Count of elements : 343
  129. Stream size : 16.6 KiB (0%)
  130. Language : Greek
  131. Default : No
  132. Forced : No

  133. Text #8
  134. ID : 10
  135. Format : UTF-8
  136. Codec ID : S_TEXT/UTF8
  137. Codec ID/Info : UTF-8 Plain Text
  138. Duration : 33 min 3 s
  139. Bit rate : 38 b/s
  140. Count of elements : 349
  141. Stream size : 9.20 KiB (0%)
  142. Language : Spanish
  143. Default : No
  144. Forced : No

  145. Text #9
  146. ID : 11
  147. Format : UTF-8
  148. Codec ID : S_TEXT/UTF8
  149. Codec ID/Info : UTF-8 Plain Text
  150. Duration : 33 min 1 s
  151. Bit rate : 39 b/s
  152. Count of elements : 347
  153. Stream size : 9.56 KiB (0%)
  154. Title : European
  155. Language : Spanish
  156. Default : No
  157. Forced : No

  158. Text #10
  159. ID : 12
  160. Format : UTF-8
  161. Codec ID : S_TEXT/UTF8
  162. Codec ID/Info : UTF-8 Plain Text
  163. Duration : 33 min 3 s
  164. Bit rate : 37 b/s
  165. Count of elements : 335
  166. Stream size : 9.03 KiB (0%)
  167. Language : Finnish
  168. Default : No
  169. Forced : No

  170. Text #11
  171. ID : 13
  172. Format : UTF-8
  173. Codec ID : S_TEXT/UTF8
  174. Codec ID/Info : UTF-8 Plain Text
  175. Duration : 33 min 3 s
  176. Bit rate : 39 b/s
  177. Count of elements : 335
  178. Stream size : 9.64 KiB (0%)
  179. Language : French
  180. Default : No
  181. Forced : No

  182. Text #12
  183. ID : 14
  184. Format : UTF-8
  185. Codec ID : S_TEXT/UTF8
  186. Codec ID/Info : UTF-8 Plain Text
  187. Duration : 33 min 3 s
  188. Bit rate : 68 b/s
  189. Count of elements : 346
  190. Stream size : 16.6 KiB (0%)
  191. Language : Hebrew
  192. Default : No
  193. Forced : No

  194. Text #13
  195. ID : 15
  196. Format : UTF-8
  197. Codec ID : S_TEXT/UTF8
  198. Codec ID/Info : UTF-8 Plain Text
  199. Duration : 33 min 5 s
  200. Bit rate : 39 b/s
  201. Count of elements : 341
  202. Stream size : 9.49 KiB (0%)
  203. Language : Croatian
  204. Default : No
  205. Forced : No

  206. Text #14
  207. ID : 16
  208. Format : UTF-8
  209. Codec ID : S_TEXT/UTF8
  210. Codec ID/Info : UTF-8 Plain Text
  211. Duration : 33 min 3 s
  212. Bit rate : 43 b/s
  213. Count of elements : 319
  214. Stream size : 10.4 KiB (0%)
  215. Language : Hungarian
  216. Default : No
  217. Forced : No

  218. Text #15
  219. ID : 17
  220. Format : UTF-8
  221. Codec ID : S_TEXT/UTF8
  222. Codec ID/Info : UTF-8 Plain Text
  223. Duration : 33 min 3 s
  224. Bit rate : 40 b/s
  225. Count of elements : 350
  226. Stream size : 9.72 KiB (0%)
  227. Language : Indonesian
  228. Default : No
  229. Forced : No

  230. Text #16
  231. ID : 18
  232. Format : UTF-8
  233. Codec ID : S_TEXT/UTF8
  234. Codec ID/Info : UTF-8 Plain Text
  235. Duration : 33 min 3 s
  236. Bit rate : 38 b/s
  237. Count of elements : 336
  238. Stream size : 9.40 KiB (0%)
  239. Language : Italian
  240. Default : No
  241. Forced : No

  242. Text #17
  243. ID : 19
  244. Format : UTF-8
  245. Codec ID : S_TEXT/UTF8
  246. Codec ID/Info : UTF-8 Plain Text
  247. Duration : 33 min 3 s
  248. Bit rate : 34 b/s
  249. Count of elements : 355
  250. Stream size : 8.26 KiB (0%)
  251. Language : Japanese
  252. Default : No
  253. Forced : No

  254. Text #18
  255. ID : 20
  256. Format : UTF-8
  257. Codec ID : S_TEXT/UTF8
  258. Codec ID/Info : UTF-8 Plain Text
  259. Duration : 33 min 3 s
  260. Bit rate : 47 b/s
  261. Count of elements : 364
  262. Stream size : 11.5 KiB (0%)
  263. Language : Korean
  264. Default : No
  265. Forced : No

  266. Text #19
  267. ID : 21
  268. Format : UTF-8
  269. Codec ID : S_TEXT/UTF8
  270. Codec ID/Info : UTF-8 Plain Text
  271. Duration : 33 min 3 s
  272. Bit rate : 38 b/s
  273. Count of elements : 349
  274. Stream size : 9.22 KiB (0%)
  275. Language : Malay
  276. Default : No
  277. Forced : No

  278. Text #20
  279. ID : 22
  280. Format : UTF-8
  281. Codec ID : S_TEXT/UTF8
  282. Codec ID/Info : UTF-8 Plain Text
  283. Duration : 33 min 3 s
  284. Bit rate : 40 b/s
  285. Count of elements : 322
  286. Stream size : 9.70 KiB (0%)
  287. Language : Norwegian Bokmal
  288. Default : No
  289. Forced : No

  290. Text #21
  291. ID : 23
  292. Format : UTF-8
  293. Codec ID : S_TEXT/UTF8
  294. Codec ID/Info : UTF-8 Plain Text
  295. Duration : 33 min 3 s
  296. Bit rate : 37 b/s
  297. Count of elements : 291
  298. Stream size : 9.20 KiB (0%)
  299. Language : Dutch
  300. Default : No
  301. Forced : No

  302. Text #22
  303. ID : 24
  304. Format : UTF-8
  305. Codec ID : S_TEXT/UTF8
  306. Codec ID/Info : UTF-8 Plain Text
  307. Duration : 33 min 3 s
  308. Bit rate : 39 b/s
  309. Count of elements : 353
  310. Stream size : 9.45 KiB (0%)
  311. Language : Polish
  312. Default : No
  313. Forced : No

  314. Text #23
  315. ID : 25
  316. Format : UTF-8
  317. Codec ID : S_TEXT/UTF8
  318. Codec ID/Info : UTF-8 Plain Text
  319. Duration : 33 min 3 s
  320. Bit rate : 42 b/s
  321. Count of elements : 349
  322. Stream size : 10.3 KiB (0%)
  323. Language : Portuguese
  324. Default : No
  325. Forced : No

  326. Text #24
  327. ID : 26
  328. Format : UTF-8
  329. Codec ID : S_TEXT/UTF8
  330. Codec ID/Info : UTF-8 Plain Text
  331. Duration : 33 min 3 s
  332. Bit rate : 38 b/s
  333. Count of elements : 337
  334. Stream size : 9.26 KiB (0%)
  335. Title : Brazilian
  336. Language : Portuguese
  337. Default : No
  338. Forced : No

  339. Text #25
  340. ID : 27
  341. Format : UTF-8
  342. Codec ID : S_TEXT/UTF8
  343. Codec ID/Info : UTF-8 Plain Text
  344. Duration : 33 min 3 s
  345. Bit rate : 39 b/s
  346. Count of elements : 359
  347. Stream size : 9.55 KiB (0%)
  348. Language : Romanian
  349. Default : No
  350. Forced : No

  351. Text #26
  352. ID : 28
  353. Format : UTF-8
  354. Codec ID : S_TEXT/UTF8
  355. Codec ID/Info : UTF-8 Plain Text
  356. Duration : 33 min 6 s
  357. Bit rate : 64 b/s
  358. Count of elements : 347
  359. Stream size : 15.6 KiB (0%)
  360. Language : Russian
  361. Default : No
  362. Forced : No

  363. Text #27
  364. ID : 29
  365. Format : UTF-8
  366. Codec ID : S_TEXT/UTF8
  367. Codec ID/Info : UTF-8 Plain Text
  368. Duration : 33 min 3 s
  369. Bit rate : 40 b/s
  370. Count of elements : 324
  371. Stream size : 9.70 KiB (0%)
  372. Language : Swedish
  373. Default : No
  374. Forced : No

  375. Text #28
  376. ID : 30
  377. Format : UTF-8
  378. Codec ID : S_TEXT/UTF8
  379. Codec ID/Info : UTF-8 Plain Text
  380. Duration : 33 min 3 s
  381. Bit rate : 108 b/s
  382. Count of elements : 364
  383. Stream size : 26.2 KiB (0%)
  384. Language : Thai
  385. Default : No
  386. Forced : No

  387. Text #29
  388. ID : 31
  389. Format : UTF-8
  390. Codec ID : S_TEXT/UTF8
  391. Codec ID/Info : UTF-8 Plain Text
  392. Duration : 33 min 3 s
  393. Bit rate : 42 b/s
  394. Count of elements : 336
  395. Stream size : 10.2 KiB (0%)
  396. Language : Turkish
  397. Default : No
  398. Forced : No

  399. Text #30
  400. ID : 32
  401. Format : UTF-8
  402. Codec ID : S_TEXT/UTF8
  403. Codec ID/Info : UTF-8 Plain Text
  404. Duration : 33 min 3 s
  405. Bit rate : 48 b/s
  406. Count of elements : 358
  407. Stream size : 11.8 KiB (0%)
  408. Language : Vietnamese
  409. Default : No
  410. Forced : No

  411. Text #31
  412. ID : 33
  413. Format : UTF-8
  414. Codec ID : S_TEXT/UTF8
  415. Codec ID/Info : UTF-8 Plain Text
  416. Duration : 33 min 3 s
  417. Bit rate : 39 b/s
  418. Count of elements : 363
  419. Stream size : 9.54 KiB (0%)
  420. Title : Simplified
  421. Language : Chinese
  422. Default : No
  423. Forced : No

  424. Text #32
  425. ID : 34
  426. Format : UTF-8
  427. Codec ID : S_TEXT/UTF8
  428. Codec ID/Info : UTF-8 Plain Text
  429. Duration : 33 min 3 s
  430. Bit rate : 38 b/s
  431. Count of elements : 360
  432. Stream size : 9.27 KiB (0%)
  433. Title : Traditional
  434. Language : Chinese
  435. Default : No
  436. Forced : No
复制代码

眼镜蛇 第二季4k Cobra.Kai.S02.2160p.NF.WEBRip.DDP5.1.x265-4k电视剧下载

眼镜蛇 第二季4k Cobra.Kai.S02.2160p.NF.WEBRip.DDP5.1.x265【40.10 GB】
眼镜蛇 第二季4k Cobra.Kai.S02.2160p.NF.WEBRip.DDP5.1.x265-NTb[rartv].torrent
(101.65 KB)

AI推荐主题

回复

使用道具 举报

发烧友评论3

倒序浏览
您需要登录后才可以回帖 登录 | 立即注册

本版积分规则

在线客服

在线客服

服务时间 9:00—18:00

返回顶部

关注微信公众号第一时间推送精彩

官方微信

手机访问

Hao4K影音

专注4k家庭影音,提供家庭影音社区,家庭影音器材库,影音问答平台,影音商城,服务千万家庭影音用户。

本站内容部分由用户自主分享和转载自互联网,转载目的在于传递更多信息,并不代表本网赞同其观点和对其真实性负责。

如有侵权、违反国家法律政策行为,请联系我们,我们会第一时间及时清除和处理!

举报反馈邮箱:admin@hao4k.cn

Copyright  2019-2020  Hao4K影音粤公网安备 44030302001429号    ( 粤ICP备18155646号-1 )|网站地图