专注4K家庭影音, 服务千万家庭影音发烧友!

[待验证4K资源] 金刚狼2 4k The Wolverine 2013 EE Featurettes 2160p 4k电影下载

 关闭
碧池 发表于 2020-9-6 11:29:24 | 显示全部楼层
电影频道
电影封面:
片  名: 金刚狼2 4k
电影分类: 动作 科幻 
国  家: 美国 英国 
年  代: 2013年
分 辨 率: 4K(3840x2160)
电影格式: MKV|REMUX 
画质标准: 其他 
音质编码: 其他AAC 
电影声道: 7.1声道 
帧数/FPS: 23.976 FPS
电影语言: 英文原版 
资源大小: 7.1 GB
导  演: 詹姆斯·曼高德
豆瓣评分: 6.6 分
中文字幕: -
剧情简介: 位于加拿大的深山老林,背负着永生之苦的“金刚狼”罗根(休·杰克曼 Hugh Jackman 饰)隐居于此。在一次与猎人的冲突中,他得到东瀛女子雪生(福岛莉拉 饰)的帮助。雪生是罗根二战期间的旧相识矢志田派来的下属,似乎不久于人世的老友渴望死去之间再见罗根一面。跨越重洋的罗根终于见到在虚弱的矢志田,对方希望他能够保护自己的孙女真理子(冈本多绪 饰)。随着老人谢世,葬礼上突然战火点燃。罗根在雪生的帮助下拼死救出真理子,而矢志田的儿子信玄(真田广之 饰)似乎另有所图。逃亡途中,罗根意外发现他丧失了自愈的能力,金刚狼最大的危机降临……
  本片根据弗兰克·米勒(Frank Miller)的原著漫画改编。
狼人:武士激战(港) / 金钢狼:武士之战(台) / X战警:金钢狼2(台) / Wolverine 2 / X-Men Origins: Wolverine 2/金刚狼2 4k The Wolverine 2013 EE  Featurettes 2160p BluRay x265 HEVC AI 10bit AAC 7.1-4k电影信息
  1. Video
  2. ID : 1
  3. Format : HEVC
  4. Format/Info : High Efficiency Video Coding
  5. Codec ID : V_MPEGH/ISO/HEVC
  6. Duration : 2 h 18 min
  7. Bit rate : 6 001 kb/s
  8. Width : 3 840 pixels
  9. Height : 1 600 pixels
  10. Display aspect ratio : 2.40:1
  11. Frame rate mode : Constant
  12. Frame rate : 23.976 (24000/1001) FPS
  13. Color space : YUV
  14. Chroma subsampling : 4:2:0
  15. Bit depth : 10 bits
  16. Bits/(Pixel*Frame) : 0.041
  17. Stream size : 5.79 GiB (85%)
  18. Writing library : x265 3.2+9-971180b100f8:[Windows][GCC 9.2.0][64 bit] 10bit
  19. Encoding settings : cpuid=1111039 / frame-threads=3 / numa-pools=12 / wpp / no-pmode / no-pme / no-psnr / ssim / log-level=2 / input-csp=1 / input-res=3840x1600 / interlace=0 / total-frames=198648 / level-idc=0 / high-tier=1 / uhd-bd=0 / ref=4 / no-allow-non-conformance / no-repeat-headers / annexb / no-aud / no-hrd / info / hash=0 / no-temporal-layers / open-gop / min-keyint=23 / keyint=250 / gop-lookahead=0 / bframes=8 / b-adapt=2 / b-pyramid / bframe-bias=40 / rc-lookahead=80 / lookahead-slices=4 / scenecut=40 / radl=0 / no-splice / no-intra-refresh / ctu=64 / min-cu-size=8 / no-rect / no-amp / max-tu-size=32 / tu-inter-depth=1 / tu-intra-depth=1 / limit-tu=0 / rdoq-level=2 / dynamic-rd=0.00 / ssim-rd / signhide / no-tskip / nr-intra=0 / nr-inter=0 / constrained-intra / strong-intra-smoothing / max-merge=3 / limit-refs=3 / limit-modes / me=3 / subme=3 / merange=57 / temporal-mvp / no-frame-dup / no-hme / weightp / no-weightb / no-analyze-src-pics / deblock=0:0 / sao / no-sao-non-deblock / rd=4 / selective-sao=4 / no-early-skip / rskip / no-fast-intra / no-tskip-fast / no-cu-lossless / no-b-intra / no-splitrd-skip / rdpenalty=0 / psy-rd=3.50 / psy-rdoq=2.50 / no-rd-refine / no-lossless / cbqpoffs=0 / crqpoffs=0 / rc=abr / bitrate=6000 / qcomp=0.60 / qpstep=4 / stats-write=0 / stats-read=2 / cplxblur=20.0 / qblur=0.5 / ipratio=1.40 / pbratio=1.30 / aq-mode=3 / aq-strength=0.40 / cutree / zone-count=0 / no-strict-cbr / qg-size=32 / no-rc-grain / qpmax=69 / qpmin=0 / no-const-vbv / sar=0 / overscan=0 / videoformat=5 / range=0 / colorprim=1 / transfer=1 / colormatrix=1 / chromaloc=0 / display-window=0 / cll=0,0 / min-luma=0 / max-luma=1023 / log2-max-poc-lsb=8 / vui-timing-info / vui-hrd-info / slices=1 / no-opt-qp-pps / no-opt-ref-list-length-pps / multi-pass-opt-rps / scenecut-bias=0.05 / no-opt-cu-delta-qp / no-aq-motion / no-hdr / no-hdr-opt / no-dhdr10-opt / no-idr-recovery-sei / analysis-load / analysis-reuse-level=10 / scale-factor=0 / refine-intra=0 / refine-inter=0 / refine-mv=1 / refine-ctu-distortion=0 / limit-sao / ctu-info=0 / no-lowpass-dct / refine-analysis-type=0 / copy-pic=1 / max-ausize-factor=1.0 / no-dynamic-refine / no-single-sei / no-hevc-aq / no-svt / no-field / qp-adaptation-range=1.00
  20. Default : Yes
  21. Forced : No
  22. Color range : Limited
  23. Color primaries : BT.709
  24. Transfer characteristics : BT.709
  25. Matrix coefficients : BT.709

  26. Audio #1
  27. ID : 2
  28. Format : AAC
  29. Format/Info : Advanced Audio Codec
  30. Format profile : LC
  31. Codec ID : A_AAC
  32. Duration : 2 h 18 min
  33. Bit rate : 639 kb/s
  34. Channel(s) : 8 channels
  35. Channel positions : Front: L C R, Side: L R, Back: L R, LFE
  36. Sampling rate : 48.0 kHz
  37. Frame rate : 46.875 FPS (1024 spf)
  38. Compression mode : Lossy
  39. Delay relative to video : 9 ms
  40. Stream size : 631 MiB (9%)
  41. Title : Surround 7.1
  42. Language : English
  43. Default : No
  44. Forced : No

  45. Audio #2
  46. ID : 3
  47. Format : AAC
  48. Format/Info : Advanced Audio Codec
  49. Format profile : HE-AAC / LC
  50. Codec ID : A_AAC
  51. Duration : 2 h 18 min
  52. Bit rate : 56.8 kb/s
  53. Channel(s) : 2 channels
  54. Channel positions : Front: L R
  55. Sampling rate : 48.0 kHz / 24.0 kHz
  56. Frame rate : 23.438 FPS (1024 spf)
  57. Compression mode : Lossy
  58. Delay relative to video : 31 ms
  59. Stream size : 56.1 MiB (1%)
  60. Title : Commentary by director James Mangold
  61. Language : English
  62. Default : No
  63. Forced : No

  64. Audio #3
  65. ID : 4
  66. Format : AAC
  67. Format/Info : Advanced Audio Codec
  68. Format profile : LC
  69. Codec ID : A_AAC
  70. Duration : 2 h 18 min
  71. Bit rate : 100 kb/s
  72. Channel(s) : 2 channels
  73. Channel positions : Front: L R
  74. Sampling rate : 48.0 kHz
  75. Frame rate : 46.875 FPS (1024 spf)
  76. Compression mode : Lossy
  77. Delay relative to video : 9 ms
  78. Stream size : 98.8 MiB (1%)
  79. Language : Spanish
  80. Default : No
  81. Forced : No

  82. Audio #4
  83. ID : 5
  84. Format : AAC
  85. Format/Info : Advanced Audio Codec
  86. Format profile : LC
  87. Codec ID : A_AAC
  88. Duration : 2 h 18 min
  89. Bit rate : 101 kb/s
  90. Channel(s) : 2 channels
  91. Channel positions : Front: L R
  92. Sampling rate : 48.0 kHz
  93. Frame rate : 46.875 FPS (1024 spf)
  94. Compression mode : Lossy
  95. Delay relative to video : 9 ms
  96. Stream size : 99.5 MiB (1%)
  97. Language : French
  98. Default : No
  99. Forced : No

  100. Audio #5
  101. ID : 6
  102. Format : AAC
  103. Format/Info : Advanced Audio Codec
  104. Format profile : LC
  105. Codec ID : A_AAC
  106. Duration : 2 h 18 min
  107. Bit rate : 100 kb/s
  108. Channel(s) : 2 channels
  109. Channel positions : Front: L R
  110. Sampling rate : 48.0 kHz
  111. Frame rate : 46.875 FPS (1024 spf)
  112. Compression mode : Lossy
  113. Delay relative to video : 9 ms
  114. Stream size : 99.2 MiB (1%)
  115. Language : Portuguese
  116. Default : No
  117. Forced : No

  118. Subtitle #1
  119. ID : 7
  120. Format : VobSub
  121. Muxing mode : zlib
  122. Codec ID : S_VOBSUB
  123. Codec ID/Info : Picture based subtitle format used on DVDs
  124. Duration : 1 h 43 min
  125. Bit rate : 393 b/s
  126. Count of elements : 116
  127. Stream size : 298 KiB (0%)
  128. Language : English
  129. Default : Yes
  130. Forced : Yes

  131. Subtitle #2
  132. ID : 8
  133. Format : VobSub
  134. Muxing mode : zlib
  135. Codec ID : S_VOBSUB
  136. Codec ID/Info : Picture based subtitle format used on DVDs
  137. Duration : 1 h 43 min
  138. Bit rate : 393 b/s
  139. Count of elements : 116
  140. Stream size : 298 KiB (0%)
  141. Language : English
  142. Default : No
  143. Forced : No

  144. Subtitle #3
  145. ID : 9
  146. Format : VobSub
  147. Muxing mode : zlib
  148. Codec ID : S_VOBSUB
  149. Codec ID/Info : Picture based subtitle format used on DVDs
  150. Duration : 2 h 10 min
  151. Bit rate : 6 725 b/s
  152. Count of elements : 1461
  153. Stream size : 6.27 MiB (0%)
  154. Language : English
  155. Default : No
  156. Forced : No

  157. Subtitle #4
  158. ID : 10
  159. Format : VobSub
  160. Muxing mode : zlib
  161. Codec ID : S_VOBSUB
  162. Codec ID/Info : Picture based subtitle format used on DVDs
  163. Duration : 2 h 16 min
  164. Bit rate : 4 432 b/s
  165. Count of elements : 1029
  166. Stream size : 4.31 MiB (0%)
  167. Language : Spanish
  168. Default : No
  169. Forced : No

  170. Subtitle #5
  171. ID : 11
  172. Format : VobSub
  173. Muxing mode : zlib
  174. Codec ID : S_VOBSUB
  175. Codec ID/Info : Picture based subtitle format used on DVDs
  176. Duration : 1 h 55 min
  177. Bit rate : 371 b/s
  178. Count of elements : 117
  179. Stream size : 314 KiB (0%)
  180. Language : Spanish
  181. Default : No
  182. Forced : No

  183. Subtitle #6
  184. ID : 12
  185. Format : VobSub
  186. Muxing mode : zlib
  187. Codec ID : S_VOBSUB
  188. Codec ID/Info : Picture based subtitle format used on DVDs
  189. Duration : 1 h 55 min
  190. Bit rate : 379 b/s
  191. Count of elements : 119
  192. Stream size : 321 KiB (0%)
  193. Language : French
  194. Default : No
  195. Forced : No

  196. Subtitle #7
  197. ID : 13
  198. Format : VobSub
  199. Muxing mode : zlib
  200. Codec ID : S_VOBSUB
  201. Codec ID/Info : Picture based subtitle format used on DVDs
  202. Duration : 1 h 55 min
  203. Bit rate : 379 b/s
  204. Count of elements : 119
  205. Stream size : 321 KiB (0%)
  206. Language : French
  207. Default : No
  208. Forced : No

  209. Subtitle #8
  210. ID : 14
  211. Format : VobSub
  212. Muxing mode : zlib
  213. Codec ID : S_VOBSUB
  214. Codec ID/Info : Picture based subtitle format used on DVDs
  215. Duration : 2 h 16 min
  216. Bit rate : 4 240 b/s
  217. Count of elements : 1056
  218. Stream size : 4.13 MiB (0%)
  219. Language : Portuguese
  220. Default : No
  221. Forced : No

  222. Subtitle #9
  223. ID : 15
  224. Format : VobSub
  225. Muxing mode : zlib
  226. Codec ID : S_VOBSUB
  227. Codec ID/Info : Picture based subtitle format used on DVDs
  228. Duration : 1 h 55 min
  229. Bit rate : 507 b/s
  230. Count of elements : 118
  231. Stream size : 430 KiB (0%)
  232. Language : Portuguese
  233. Default : No
  234. Forced : No

  235. Subtitle #10
  236. ID : 16
  237. Format : VobSub
  238. Muxing mode : zlib
  239. Codec ID : S_VOBSUB
  240. Codec ID/Info : Picture based subtitle format used on DVDs
  241. Duration : 2 h 11 min
  242. Bit rate : 17.3 kb/s
  243. Count of elements : 2080
  244. Stream size : 16.2 MiB (0%)
  245. Language : English
  246. Default : No
  247. Forced : No

  248. Subtitle #11
  249. ID : 17
  250. Format : UTF-8
  251. Codec ID : S_TEXT/UTF8
  252. Codec ID/Info : UTF-8 Plain Text
  253. Duration : 2 h 11 min
  254. Bit rate : 42 b/s
  255. Count of elements : 988
  256. Stream size : 41.0 KiB (0%)
  257. Language : Arabic
  258. Default : No
  259. Forced : No

  260. Subtitle #12
  261. ID : 18
  262. Format : UTF-8
  263. Codec ID : S_TEXT/UTF8
  264. Codec ID/Info : UTF-8 Plain Text
  265. Duration : 2 h 10 min
  266. Bit rate : 24 b/s
  267. Count of elements : 1116
  268. Stream size : 23.3 KiB (0%)
  269. Language : Chinese
  270. Default : No
  271. Forced : No

  272. Subtitle #13
  273. ID : 19
  274. Format : UTF-8
  275. Codec ID : S_TEXT/UTF8
  276. Codec ID/Info : UTF-8 Plain Text
  277. Duration : 2 h 16 min
  278. Bit rate : 27 b/s
  279. Count of elements : 1029
  280. Stream size : 27.6 KiB (0%)
  281. Language : Danish
  282. Default : No
  283. Forced : No

  284. Subtitle #14
  285. ID : 20
  286. Format : UTF-8
  287. Codec ID : S_TEXT/UTF8
  288. Codec ID/Info : UTF-8 Plain Text
  289. Duration : 2 h 9 min
  290. Bit rate : 29 b/s
  291. Count of elements : 811
  292. Stream size : 27.6 KiB (0%)
  293. Language : Dutch
  294. Default : No
  295. Forced : No

  296. Subtitle #15
  297. ID : 21
  298. Format : UTF-8
  299. Codec ID : S_TEXT/UTF8
  300. Codec ID/Info : UTF-8 Plain Text
  301. Duration : 2 h 10 min
  302. Bit rate : 44 b/s
  303. Count of elements : 1076
  304. Stream size : 42.3 KiB (0%)
  305. Language : Persian
  306. Default : No
  307. Forced : No

  308. Subtitle #16
  309. ID : 22
  310. Format : UTF-8
  311. Codec ID : S_TEXT/UTF8
  312. Codec ID/Info : UTF-8 Plain Text
  313. Duration : 2 h 16 min
  314. Bit rate : 30 b/s
  315. Count of elements : 1063
  316. Stream size : 30.5 KiB (0%)
  317. Language : German
  318. Default : No
  319. Forced : No

  320. Subtitle #17
  321. ID : 23
  322. Format : UTF-8
  323. Codec ID : S_TEXT/UTF8
  324. Codec ID/Info : UTF-8 Plain Text
  325. Duration : 2 h 9 min
  326. Bit rate : 53 b/s
  327. Count of elements : 1047
  328. Stream size : 50.7 KiB (0%)
  329. Language : Greek
  330. Default : No
  331. Forced : No

  332. Subtitle #18
  333. ID : 24
  334. Format : UTF-8
  335. Codec ID : S_TEXT/UTF8
  336. Codec ID/Info : UTF-8 Plain Text
  337. Duration : 2 h 10 min
  338. Bit rate : 56 b/s
  339. Count of elements : 959
  340. Stream size : 53.8 KiB (0%)
  341. Language : Indonesian
  342. Default : No
  343. Forced : No

  344. Subtitle #19
  345. ID : 25
  346. Format : UTF-8
  347. Codec ID : S_TEXT/UTF8
  348. Codec ID/Info : UTF-8 Plain Text
  349. Duration : 2 h 10 min
  350. Bit rate : 30 b/s
  351. Count of elements : 1080
  352. Stream size : 29.4 KiB (0%)
  353. Language : Malay
  354. Default : No
  355. Forced : No

  356. Subtitle #20
  357. ID : 26
  358. Format : UTF-8
  359. Codec ID : S_TEXT/UTF8
  360. Codec ID/Info : UTF-8 Plain Text
  361. Duration : 2 h 9 min
  362. Bit rate : 26 b/s
  363. Count of elements : 1037
  364. Stream size : 25.2 KiB (0%)
  365. Language : Norwegian Bokmal
  366. Default : No
  367. Forced : No

  368. Subtitle #21
  369. ID : 27
  370. Format : UTF-8
  371. Codec ID : S_TEXT/UTF8
  372. Codec ID/Info : UTF-8 Plain Text
  373. Duration : 2 h 10 min
  374. Bit rate : 27 b/s
  375. Count of elements : 917
  376. Stream size : 26.1 KiB (0%)
  377. Language : Serbian
  378. Default : No
  379. Forced : No

  380. Subtitle #22
  381. ID : 28
  382. Format : UTF-8
  383. Codec ID : S_TEXT/UTF8
  384. Codec ID/Info : UTF-8 Plain Text
  385. Duration : 2 h 10 min
  386. Bit rate : 29 b/s
  387. Count of elements : 1080
  388. Stream size : 28.5 KiB (0%)
  389. Language : Swedish
  390. Default : No
  391. Forced : No

  392. Subtitle #23
  393. ID : 29
  394. Format : UTF-8
  395. Codec ID : S_TEXT/UTF8
  396. Codec ID/Info : UTF-8 Plain Text
  397. Duration : 2 h 11 min
  398. Bit rate : 68 b/s
  399. Count of elements : 1064
  400. Stream size : 65.9 KiB (0%)
  401. Language : Thai
  402. Default : No
  403. Forced : No

  404. Subtitle #24
  405. ID : 30
  406. Format : UTF-8
  407. Codec ID : S_TEXT/UTF8
  408. Codec ID/Info : UTF-8 Plain Text
  409. Duration : 2 h 9 min
  410. Bit rate : 41 b/s
  411. Count of elements : 1085
  412. Stream size : 39.5 KiB (0%)
  413. Language : Vietnamese
  414. Default : No
  415. Forced : No

  416. Menu
  417. 00:00:00.000 : en:Chapter 01
  418. 00:05:03.720 : en:Chapter 02
  419. 00:07:39.792 : en:Chapter 03
  420. 00:08:40.561 : en:Chapter 04
  421. 00:10:24.373 : en:Chapter 05
  422. 00:13:55.668 : en:Chapter 06
  423. 00:16:48.173 : en:Chapter 07
  424. 00:20:32.648 : en:Chapter 08
  425. 00:23:37.457 : en:Chapter 09
  426. 00:29:13.585 : en:Chapter 10
  427. 00:33:42.770 : en:Chapter 11
  428. 00:35:14.779 : en:Chapter 12
  429. 00:38:36.522 : en:Chapter 13
  430. 00:43:04.957 : en:Chapter 14
  431. 00:47:55.080 : en:Chapter 15
  432. 00:49:31.843 : en:Chapter 16
  433. 00:52:23.098 : en:Chapter 17
  434. 00:59:32.318 : en:Chapter 18
  435. 01:01:31.354 : en:Chapter 19
  436. 01:07:00.516 : en:Chapter 20
  437. 01:13:10.260 : en:Chapter 21
  438. 01:18:52.227 : en:Chapter 22
  439. 01:23:40.473 : en:Chapter 23
  440. 01:26:47.160 : en:Chapter 24
  441. 01:29:50.927 : en:Chapter 25
  442. 01:35:19.380 : en:Chapter 26
  443. 01:38:28.193 : en:Chapter 27
  444. 01:41:43.639 : en:Chapter 28
  445. 01:48:33.006 : en:Chapter 29
  446. 01:52:05.969 : en:Chapter 30
  447. 01:54:56.264 : en:Chapter 31
  448. 01:58:03.493 : en:Chapter 32
  449. 02:03:01.999 : en:Chapter 33
  450. 02:04:57.823 : en:Chapter 34
  451. 02:07:46.909 : en:Chapter 35
  452. 02:09:17.374 : en:Chapter 36
复制代码
狼人:武士激战(港) / 金钢狼:武士之战(台) / X战警:金钢狼2(台) / Wolverine 2 / X-Men Origins: Wolverine 2/金刚狼2 4k The Wolverine 2013 EE  Featurettes 2160p BluRay x265 HEVC AI 10bit AAC 7.1-4k电影下载
金刚狼2 4k The Wolverine 2013 EE  Featurettes 2160p BluRay x265 HEVC AI 10bit AAC 7.1【7.1 GB】
金刚狼24k.txt
(96 Bytes)
回复

使用道具 举报

发烧友评论14

倒序浏览
hsq2041 发表于 2020-9-6 15:07:39 | 显示全部楼层
7.1G的4K,难道你敢挑战本站管理员??
回复 支持 4 反对 1

使用道具 举报

yrh100 发表于 2020-9-6 17:14:40 Hao4K手机版 | 显示全部楼层
跟爱奇艺没啥区别
回复 支持 0 反对 1

使用道具 举报

BigLee 发表于 2020-9-6 11:41:46 | 显示全部楼层
近期片源都没有审核吗?都是不到10G,或者不到20G的4K!
回复 支持 1 反对 0

使用道具 举报

yanguofei 发表于 2020-9-6 18:38:04 | 显示全部楼层
谢谢老大分享!谢谢!!!
回复 支持 反对

使用道具 举报

QQ_891404 发表于 2020-9-6 18:26:36 Hao4K手机版 | 显示全部楼层
樓主還是別再亂發貼
回复 支持 反对

使用道具 举报

haoqia888 发表于 2020-9-6 15:39:19 Hao4K手机版 | 显示全部楼层
经典的片子,谢谢分享。
回复 支持 反对

使用道具 举报

dk30129 发表于 2020-9-6 15:25:55 | 显示全部楼层
谢谢分享,好电影!!!
回复 支持 反对

使用道具 举报

您需要登录后才可以回帖 登录 | 立即注册

本版积分规则


0关注

19粉丝

68帖子

热门图文主题
热门主题
社区广告

在线客服

在线客服

服务时间 9:00—18:00

返回顶部

关注微信公众号第一时间推送精彩

官方微信

手机访问

Hao4K影音

专注4k家庭影音,提供家庭影音社区,家庭影音器材库,影音问答平台,影音商城,服务千万家庭影音用户。

本站内容部分由用户自主分享和转载自互联网,转载目的在于传递更多信息,并不代表本网赞同其观点和对其真实性负责。

如有侵权、违反国家法律政策行为,请联系我们,我们会第一时间及时清除和处理!

举报反馈邮箱:admin@hao4k.cn

Copyright  2019-2020  Hao4K影音粤公网安备 44030302001429号    ( 粤ICP备18155646号-1 )|网站地图