专注4K家庭影音, 服务千万家庭影音发烧友!

[美剧] 恋爱 欺诈4k Love.Fraud.S01E01.2160p.STAN.WEBRip.AAC5.1.x265-4k美剧下载

大红色 发表于 2020-9-7 09:45:53 | 显示全部楼层
电视剧频道
电视剧封面:
电视剧名: 恋爱 欺诈4k
年  代: 2020  
国  家: 美国
类  别: 纪录片 
语  言: 英语
字  幕: 英文原版
上映日期: 2020-05-08
文件格式: mkv    
视频效果: 4K(3840x2160)    
资源大小: 3.38 GB
片  长: -
导  演: 雷切尔·格雷迪 / 海迪·埃温
剧情简介: -
恋爱 欺诈4k Love.Fraud.S01E01.2160p.STAN.WEBRip.AAC5.1.x265-4k美剧信息
  1. Video
  2. ID : 1
  3. Format : HEVC
  4. Format/Info : High Efficiency Video Coding
  5. Format profile : Main@L5@Main
  6. Codec ID : V_MPEGH/ISO/HEVC
  7. Duration : 50 min 17 s
  8. Bit rate : 9 174 kb/s
  9. Width : 3 840 pixels
  10. Height : 2 160 pixels
  11. Display aspect ratio : 16:9
  12. Frame rate mode : Constant
  13. Frame rate : 23.976 (23976/1000) FPS
  14. Original frame rate : 23.976 (24000/1001) FPS
  15. Color space : YUV
  16. Chroma subsampling : 4:2:0
  17. Bit depth : 8 bits
  18. Bits/(Pixel*Frame) : 0.046
  19. Stream size : 3.22 GiB (95%)
  20. Default : Yes
  21. Forced : No
  22. Color range : Limited
  23. Matrix coefficients : BT.2020 non-constant

  24. Audio
  25. ID : 2
  26. Format : AAC LC
  27. Format/Info : Advanced Audio Codec Low Complexity
  28. Codec ID : A_AAC-2
  29. Duration : 50 min 17 s
  30. Bit rate : 445 kb/s
  31. Channel(s) : 6 channels
  32. Channel layout : C L R Ls Rs LFE
  33. Sampling rate : 48.0 kHz
  34. Frame rate : 46.875 FPS (1024 SPF)
  35. Compression mode : Lossy
  36. Stream size : 160 MiB (5%)
  37. Language : English
  38. Default : Yes
  39. Forced : No

  40. Text
  41. ID : 3
  42. Format : UTF-8
  43. Codec ID : S_TEXT/UTF8
  44. Codec ID/Info : UTF-8 Plain Text
  45. Duration : 50 min 10 s
  46. Bit rate : 73 b/s
  47. Count of elements : 751
  48. Stream size : 27.1 KiB (0%)
  49. Title : SDH
  50. Language : English
  51. Default : No
  52. Forced : No

  53. Menu
  54. 00:49:27.000 : en:Credits
复制代码

恋爱 欺诈4k Love.Fraud.S01E01.2160p.STAN.WEBRip.AAC5.1.x265-4k美剧下载

恋爱 欺诈4k Love.Fraud.S01.2160p.STAN.WEBRip.AAC5.1.x265【17.99 GB】
恋爱 欺诈4k Love.Fraud.S01.2160p.STAN.WEBRip.AAC5.1.x265-WELP[rartv].torrent
(90.73 KB)
回复

使用道具 举报

您需要登录后才可以回帖 登录 | 立即注册

本版积分规则

在线客服

在线客服

服务时间 9:00—18:00

返回顶部

关注微信公众号第一时间推送精彩

官方微信

手机访问

Hao4K影音

专注4k家庭影音,提供家庭影音社区,家庭影音器材库,影音问答平台,影音商城,服务千万家庭影音用户。

本站内容部分由用户自主分享和转载自互联网,转载目的在于传递更多信息,并不代表本网赞同其观点和对其真实性负责。

如有侵权、违反国家法律政策行为,请联系我们,我们会第一时间及时清除和处理!

举报反馈邮箱:admin@hao4k.cn

Copyright  2019-2020  Hao4K影音粤公网安备 44030302001429号    ( 粤ICP备18155646号-1 )|网站地图