专注4K家庭影音, 服务千万家庭影音发烧友!

[美剧] 权欲第二章4k Power.Book.II.Ghost.S01E01.The.Stranger.2160p.STAN.WEBRip.DDP5.1.x265-4k美剧下载

大红色 发表于 2020-9-8 09:15:18 | 显示全部楼层
电视剧频道
电视剧封面:
电视剧名: 权欲第二章4k
年  代: 2020  
国  家: 美国
类  别: 剧情 
语  言: 英语
字  幕: 英文原版
上映日期: 2020-09-06
文件格式: mkv    
视频效果: 4K(3840x2160)    
资源大小: 6.59 GB
片  长: -
导  演: 马里索尔·阿德勒 / 安东尼·海明威 / 斯图尔特·席尔 / Hernan Otaño / Erica Watson
剧情简介: 玛丽·布莱姬(Mary J.Blige)将第一次以主角的身份,加盟美国热播剧Starz出品《#权欲# Power》衍生剧《Power Book II: Ghost》,《权欲》第六季已经完结,衍生剧将会套用原剧的路线,同时延用原班制作班底,Mary是这一剧的主角,全部剧集将以Mary这个主角故事内容展开,制作人/导演/主演的50 Cent已经在ING开始宣传,透露请紧盯着:"MJB",期待新一季预告片首播。
权欲衍生剧 / Power Book II/权欲第二章4k Power.Book.II.Ghost.S01E01.The.Stranger.2160p.STAN.WEBRip.DDP5.1.x265-4k美剧信息
  1. Video
  2. ID : 1
  3. Format : HEVC
  4. Format/Info : High Efficiency Video Coding
  5. Format profile : Main@L5@High
  6. Codec ID : V_MPEGH/ISO/HEVC
  7. Duration : 1 h 6 min
  8. Bit rate : 13.6 Mb/s
  9. Width : 3 840 pixels
  10. Height : 2 160 pixels
  11. Display aspect ratio : 16:9
  12. Frame rate mode : Constant
  13. Frame rate : 23.976 (23976/1000) FPS
  14. Original frame rate : 23.976 (24000/1001) FPS
  15. Color space : YUV
  16. Chroma subsampling : 4:2:0
  17. Bit depth : 8 bits
  18. Bits/(Pixel*Frame) : 0.068
  19. Stream size : 6.29 GiB (95%)
  20. Default : Yes
  21. Forced : No
  22. Color range : Limited
  23. Color primaries : BT.709
  24. Transfer characteristics : BT.709
  25. Matrix coefficients : BT.709

  26. Audio
  27. ID : 2
  28. Format : E-AC-3
  29. Format/Info : Enhanced AC-3
  30. Commercial name : Dolby Digital Plus
  31. Codec ID : A_EAC3
  32. Duration : 1 h 6 min
  33. Bit rate mode : Constant
  34. Bit rate : 640 kb/s
  35. Channel(s) : 6 channels
  36. Channel layout : L R C LFE Ls Rs
  37. Sampling rate : 48.0 kHz
  38. Frame rate : 31.250 FPS (1536 SPF)
  39. Compression mode : Lossy
  40. Stream size : 303 MiB (4%)
  41. Language : English
  42. Service kind : Complete Main
  43. Default : Yes
  44. Forced : No

  45. Text
  46. ID : 3
  47. Format : UTF-8
  48. Codec ID : S_TEXT/UTF8
  49. Codec ID/Info : UTF-8 Plain Text
  50. Duration : 1 h 6 min
  51. Bit rate : 111 b/s
  52. Count of elements : 1625
  53. Stream size : 54.1 KiB (0%)
  54. Title : SDH
  55. Language : English
  56. Default : No
  57. Forced : No

  58. Menu
  59. 00:00:03.000 : en:Recap & intro
  60. 00:02:49.000 : en:Intro start
  61. 00:04:18.000 : en:Intro end
  62. 01:04:57.000 : en:Credits
复制代码

权欲衍生剧 / Power Book II/权欲第二章4k Power.Book.II.Ghost.S01E01.The.Stranger.2160p.STAN.WEBRip.DDP5.1.x265-4k美剧下载

权欲第二章4k Power.Book.II.Ghost.S01E01.The.Stranger.2160p.STAN.WEBRip.DDP5.1.x265【6.59 GB】
[Hao4k]权欲第二章4k Power.Book.II.Ghost.S01E01.The.Stranger.2160p.STAN.WEBRip.DD.torrent
(33.48 KB)
回复

使用道具 举报

发烧友评论6

倒序浏览
a404080957a 发表于 2020-9-15 00:01:10 | 显示全部楼层
谢谢楼主分享!
回复 支持 反对

使用道具 举报

coco00085 发表于 2020-9-13 11:39:31 | 显示全部楼层
这个评分还不错的说,下来看看
回复 支持 反对

使用道具 举报

zz1136740893 发表于 2020-9-12 16:35:00 | 显示全部楼层
感谢楼主分享!
回复 支持 反对

使用道具 举报

曾经年轻 发表于 2020-9-8 20:31:56 | 显示全部楼层
感谢楼主无私分享      
回复 支持 反对

使用道具 举报

您需要登录后才可以回帖 登录 | 立即注册

本版积分规则

在线客服

在线客服

服务时间 9:00—18:00

返回顶部

关注微信公众号第一时间推送精彩

官方微信

手机访问

Hao4K影音

专注4k家庭影音,提供家庭影音社区,家庭影音器材库,影音问答平台,影音商城,服务千万家庭影音用户。

本站内容部分由用户自主分享和转载自互联网,转载目的在于传递更多信息,并不代表本网赞同其观点和对其真实性负责。

如有侵权、违反国家法律政策行为,请联系我们,我们会第一时间及时清除和处理!

举报反馈邮箱:admin@hao4k.cn

Copyright  2019-2020  Hao4K影音粤公网安备 44030302001429号    ( 粤ICP备18155646号-1 )|网站地图