专注4K家庭影音, 服务千万家庭影音发烧友!

[待验证4K资源] 丑娃娃 Uglydolls 2019 2160p 4k电影下载

碧池 发表于 2020-9-8 09:33:17 | 显示全部楼层
电影频道
电影封面:
片  名: 丑娃娃4k
电影分类: 冒险 喜剧 奇幻 动画 
国  家: 美国 中国大陆 加拿大 
年  代: 2019年
分 辨 率: 4K(3840x2160)
电影格式: MKV|REMUX 
画质标准: HDR 
音质编码: Dolby Digital Audio 
电影声道: 5.1声道 
帧数/FPS: 23.976 FPS
电影语言: 英文原版 
资源大小: 2.2 GB
导  演: 凯利·阿斯博瑞
豆瓣评分: 5.5 分
中文字幕: -
剧情简介: 该片讲述了丑娃娃们探索未知世界寻找真正自我的冒险之旅的故事。生活在丑娃镇上的丑娃娃们前往一个叫完美学院的地方探险,那里的娃娃们都精致漂亮,会在毕业前接受训练,然后被送到真实世界里成为孩子们心爱的玩具。小希要和小伙伴们在那里接受训练变身完美娃娃,这对于他们来说并不容易。小希能否完成蜕变,找到属于自己的主人,故事还在继续展开……
样衰衰奇兵(港) / Uglydoll / Ugly Dolls/丑娃娃4k Uglydolls 2019 2160p HDR 5.1 x265 10bit Phun Psyz-4k电影信息
  1. Video
  2. ID : 1
  3. Format : HEVC
  4. Format/Info : High Efficiency Video Coding
  5. Codec ID : V_MPEGH/ISO/HEVC
  6. Duration : 1 h 27 min
  7. Bit rate : 3 268 kb/s
  8. Width : 3 840 pixels
  9. Height : 2 080 pixels
  10. Display aspect ratio : 1.85:1
  11. Frame rate mode : Constant
  12. Frame rate : 23.976 (24000/1001) FPS
  13. Color space : YUV
  14. Chroma subsampling : 4:2:0
  15. Bit depth : 10 bits
  16. Bits/(Pixel*Frame) : 0.017
  17. Stream size : 1.99 GiB (89%)
  18. Writing library : x265 2.9:[Windows][GCC 7.1.0][64 bit] 10bit
  19. Color range : Full
  20. Color primaries : BT.2020
  21. Transfer characteristics : PQ
  22. Matrix coefficients : BT.2020 non-constant

  23. Audio
  24. ID : 2
  25. Format : AC-3
  26. Format/Info : Audio Coding 3
  27. Commercial name : Dolby Digital
  28. Codec ID : A_AC3
  29. Duration : 1 h 27 min
  30. Bit rate mode : Constant
  31. Bit rate : 320 kb/s
  32. Channel(s) : 6 channels
  33. Channel layout : L R C LFE Ls Rs
  34. Sampling rate : 48.0 kHz
  35. Frame rate : 31.250 FPS (1536 SPF)
  36. Compression mode : Lossy
  37. Delay relative to video : 5 ms
  38. Stream size : 200 MiB (9%)
  39. Title : Surround
  40. Language : English

  41. Text
  42. Language : English
  43. Default : No
  44. Forced : No
复制代码

样衰衰奇兵(港) / Uglydoll / Ugly Dolls/丑娃娃4k Uglydolls 2019 2160p HDR 5.1 x265 10bit Phun Psyz-4k电影下载

丑娃娃4k Uglydolls 2019 2160p HDR 5.1 x265 10bit Phun Psyz【2.2 GB】
丑娃娃4k.txt
(94 Bytes)
回复

使用道具 举报

发烧友评论2

倒序浏览
鸣鸣妈 发表于 2020-10-10 08:56:28 | 显示全部楼层
哪儿有中文字幕呀,各位大侠做一个好吗
回复 支持 反对

使用道具 举报

您需要登录后才可以回帖 登录 | 立即注册

本版积分规则


0关注

19粉丝

64帖子

热门图文主题
热门主题
社区广告

在线客服

在线客服

服务时间 9:00—18:00

返回顶部

关注微信公众号第一时间推送精彩

官方微信

手机访问

Hao4K影音

专注4k家庭影音,提供家庭影音社区,家庭影音器材库,影音问答平台,影音商城,服务千万家庭影音用户。

本站内容部分由用户自主分享和转载自互联网,转载目的在于传递更多信息,并不代表本网赞同其观点和对其真实性负责。

如有侵权、违反国家法律政策行为,请联系我们,我们会第一时间及时清除和处理!

举报反馈邮箱:admin@hao4k.cn

Copyright  2019-2020  Hao4K影音粤公网安备 44030302001429号    ( 粤ICP备18155646号-1 )|网站地图