专注4K家庭影音, 服务千万家庭影音发烧友!

[4K其他MV] [韩国大尺度4K现场] Jiyeon现场版 1 Min 1 Sec

chca 发表于 2020-9-9 18:03:39 | 显示全部楼层
MV_4K_18[Jiyeon现场版 1 Min 1 Sec]★★★★.MKV_20200909_175318.202.jpg ( e& Q+ s. J! d& O
MV_4K_18[Jiyeon现场版 1 Min 1 Sec]★★★★.MKV_20200909_175256.305.jpg * k% e; m+ l& N/ k

7 M0 X& G9 P1 [4 Y# ]* U& V) v
/ m: O' R' E# W& z$ |6 }# zGeneral5 e5 M9 T" |3 ]- M
Complete name                            : Jiyeon - Never Ever (1Min 1Sec).mp4% E; `- }# A! b: q; G2 `' z
Format                                   : MPEG-4  l# |' k% J! x* K
Format profile                           : Base Media
! N& w% U0 ~* gCodec ID                                 : isom (isom/iso2/avc1/mp41)
/ X1 X9 I6 x/ G( DFile size                                : 411 MiB2 o- n1 @) p1 D3 p" ]* g: Y, r
Duration                                 : 4mn 10s
7 ]! i4 k  E) B# z  }Overall bit rate                         : 13.8 Mbps( }% l4 O- ]7 b! p+ I# p
Writing application                      : Lavf54.29.1041 ]) B+ |$ C5 P8 J; ~) a8 I

, ^; Y6 u, k& |0 X) iVideo
" }- G* I8 u2 i  a6 lID                                       : 1
* c+ _6 J0 C" Z+ f4 uFormat                                   : AVC: \& n, ?, t' i
Format/Info                              : Advanced Video Codec2 C% ~/ F; S+ B9 Y/ s" {
Format profile                           : High@L5.12 S9 s3 q; [+ _6 e0 o- q4 y
Format settings, CABAC                   : No( @4 w/ |" w3 H" E
Format settings, ReFrames                : 2 frames
& h9 G4 c; ^0 |- _; aCodec ID                                 : avc1
: ?. a. b) s9 d3 V' Y+ YCodec ID/Info                            : Advanced Video Coding
6 K' ~5 d6 v" B$ O1 fDuration                                 : 4mn 10s
; k% {" f. C4 V! t% M) ~$ l& b  q5 ~$ DBit rate                                 : 13.7 Mbps/ l2 s3 I  _" j  j$ ]1 o7 D
Width                                    : 3 840 pixels
( w+ o  H6 M6 q8 ZHeight                                   : 2 160 pixels* b6 n0 ?4 \  V3 T! ^; Y3 G
Display aspect ratio                     : 16:9
$ r4 n* M- j1 wFrame rate mode                          : Constant
, X/ u# M, M+ H; s9 i9 ^/ ~- w6 AFrame rate                               : 30.000 fps
+ }# Q5 [8 ~: v8 v% p* vColor space                              : YUV
" ^8 T+ ?7 f% A, g- BChroma subsampling                       : 4:2:04 A  f( k4 q) k1 H3 M0 V
Bit depth                                : 8 bits
! P8 C1 j9 V* }7 t+ hScan type                                : Progressive  ^9 @' B% v7 x$ X; @* O4 Y
Bits/(Pixel*Frame)                       : 0.055
# W6 E" B" C- P3 h' s$ N- }! p1 mStream size                              : 407 MiB (99%)
6 x  y( t" ~$ A" L9 z5 B0 s; J( d* q) N0 ?; \7 [6 f5 W
Audio3 F$ O9 t$ _4 S1 ?" N- G# v
ID                                       : 2) ~/ o  @0 D1 N: Z
Format                                   : AAC
, k# j3 Y: ?4 W# Z/ h  tFormat/Info                              : Advanced Audio Codec
! K- n( i( s' {/ ?7 h7 iFormat profile                           : LC
- ?- t" O4 D! b8 ~6 VCodec ID                                 : 403 {2 O# C9 v  N6 a
Duration                                 : 4mn 10s
7 \& v6 e& B  x* GBit rate mode                            : Constant( l2 J/ g! j; m$ t
Bit rate                                 : 126 Kbps! j! S, Y3 L/ y; {! G
Channel(s)                               : 2 channels  S3 H+ @5 r+ B% ^2 a
Channel positions                        : Front: L R
5 S5 a. t# ^2 N7 C: z* RSampling rate                            : 44.1 KHz: j5 N, ]1 a4 j3 b+ L  {6 R8 k8 V
Frame rate                               : 43.066 fps (1024 spf)
' v( L, d& b# N) T) K3 g1 YCompression mode                         : Lossy
" ]& v" D3 d4 ]Stream size                              : 3.75 MiB (1%)9 }+ m- b, }3 f! [& I
Default                                  : Yes
0 t7 R. M8 `) V5 Y9 u/ V0 nAlternate group                          : 1% Z, s5 f4 I! {) ~
5 D9 g6 C1 b6 d1 _
不要在百度盘内打开压缩包 会被封!!!链接:https://pan.baidu.com/s/1Nvm-OMyjqNskKEenu1U5kA 0 q+ k" d7 |; S
解压密码 hao4k.cn7 q* @" O2 y6 C1 J8 {# W9 r6 y
提取码:2333: Z' J. q# ~  ?0 {- p9 I/ r# k2 X- I  p
ps做任务 加一下我好友
回复

使用道具 举报

发烧友评论4

倒序浏览
chca 发表于 2020-9-10 02:12:36 | 显示全部楼层
yrh100 发表于 2020-9-9 21:36
- d* Z) h& P' p4 e9 `看不出大尺度在哪?标题党一枚
* H! R6 f0 a' q
这首歌的mv 以及这段视频在韩国是19禁
% t+ n( O4 ?) v# p: r2 s. h
! d) f$ J( W* [7 D你的标准有点宽
回复 支持 反对

使用道具 举报

 楼主| yrh100 发表于 2020-9-9 21:36:43 Hao4K手机版 | 显示全部楼层
看不出大尺度在哪?标题党一枚
回复 支持 反对

使用道具 举报

您需要登录后才可以回帖 登录 | 立即注册

本版积分规则

在线客服

在线客服

服务时间 9:00—18:00

返回顶部

关注微信公众号第一时间推送精彩

官方微信

手机访问

Hao4K影音

专注4k家庭影音,提供家庭影音社区,家庭影音器材库,影音问答平台,影音商城,服务千万家庭影音用户。

本站内容部分由用户自主分享和转载自互联网,转载目的在于传递更多信息,并不代表本网赞同其观点和对其真实性负责。

如有侵权、违反国家法律政策行为,请联系我们,我们会第一时间及时清除和处理!

举报反馈邮箱:admin@hao4k.cn

Copyright  2019-2020  Hao4K影音粤公网安备 44030302001429号    ( 粤ICP备18155646号-1 )|网站地图