专注4K家庭影音, 服务千万家庭影音发烧友!

[待验证4K资源] 圣战骑士4k A Knights Tale 2001 2160.4k电影下载

碧池 发表于 2020-9-9 21:45:22 | 显示全部楼层
电影频道
电影封面:
片  名: 圣战骑士4k
电影分类: 动作 冒险 爱情片 
国  家: 美国 
年  代: 00年代
分 辨 率: 4K(3840x2160)
电影格式: MKV|REMUX 
画质标准: 其他 
音质编码: 其他AAC 
电影声道: 5.1声道 
帧数/FPS: 23.976 FPS
电影语言: 英文原版 
资源大小: 7.8 GB
导  演: 布莱恩·海尔格兰德
豆瓣评分: 7.4 分
中文字幕: /thread-49857-1-1.html
剧情简介: 小伙子威廉(希思•莱吉尔Heath Ledger 饰)虽然出身于法国的平民家庭,但从小就梦想当一名骑士,从儿时起就苦练剑术和马术。然而当时的社会只有贵族才有资格当骑士,于是威廉只当了一名贵族骑士的侍从。 在一次马上长枪比武中,威廉的主人在场间休息时突然意外死去。威廉灵机一个,穿上了主人的铠甲,骑上他的坐骑,冒名顶替并赢得了这场比赛。捧着胜利的奖杯,威廉决定继续冒充自己的主人参加在伦敦举行的世界骑士锦标赛,通过赢得比赛使自己成为一名真正的骑士。威廉启程了!
骑士传奇 / 狂野武士(港) / 骑士风云录(台) / 骑士传说/圣战骑士4k A Knights Tale 2001 2160p BluRay x265 HEVC AI 10bit AAC 5.1-4k电影信息
  1. Video
  2. ID : 1
  3. Format : HEVC
  4. Format/Info : High Efficiency Video Coding
  5. Format profile : Main [email protected]@Main
  6. Codec ID : V_MPEGH/ISO/HEVC
  7. Duration : 2 h 12 min
  8. Bit rate : 8 000 kb/s
  9. Width : 3 824 pixels
  10. Height : 1 632 pixels
  11. Display aspect ratio : 2.35:1
  12. Frame rate mode : Constant
  13. Frame rate : 23.976 (24000/1001) FPS
  14. Color space : YUV
  15. Chroma subsampling : 4:2:0
  16. Bit depth : 10 bits
  17. Bits/(Pixel*Frame) : 0.053
  18. Stream size : 7.38 GiB (95%)
  19. Writing library : x265 3.2+9-971180b100f8:[Windows][GCC 9.2.0][64 bit] 10bit
  20. Encoding settings : cpuid=1111039 / frame-threads=3 / numa-pools=12 / wpp / no-pmode / no-pme / no-psnr / ssim / log-level=2 / input-csp=1 / input-res=3824x1632 / interlace=0 / total-frames=190104 / level-idc=0 / high-tier=1 / uhd-bd=0 / ref=4 / no-allow-non-conformance / no-repeat-headers / annexb / no-aud / no-hrd / info / hash=0 / no-temporal-layers / open-gop / min-keyint=23 / keyint=250 / gop-lookahead=0 / bframes=8 / b-adapt=2 / b-pyramid / bframe-bias=40 / rc-lookahead=80 / lookahead-slices=4 / scenecut=40 / radl=0 / no-splice / no-intra-refresh / ctu=64 / min-cu-size=8 / rect / no-amp / max-tu-size=32 / tu-inter-depth=1 / tu-intra-depth=1 / limit-tu=0 / rdoq-level=2 / dynamic-rd=0.00 / ssim-rd / signhide / no-tskip / nr-intra=0 / nr-inter=0 / constrained-intra / strong-intra-smoothing / max-merge=3 / limit-refs=3 / limit-modes / me=3 / subme=3 / merange=57 / temporal-mvp / no-frame-dup / no-hme / weightp / no-weightb / no-analyze-src-pics / deblock=0:0 / sao / no-sao-non-deblock / rd=4 / selective-sao=4 / early-skip / rskip / no-fast-intra / no-tskip-fast / no-cu-lossless / no-b-intra / splitrd-skip / rdpenalty=0 / psy-rd=2.45 / psy-rdoq=1.50 / no-rd-refine / no-lossless / cbqpoffs=0 / crqpoffs=0 / rc=abr / bitrate=8000 / qcomp=0.60 / qpstep=4 / stats-write=0 / stats-read=2 / cplxblur=20.0 / qblur=0.5 / ipratio=1.40 / pbratio=1.30 / aq-mode=3 / aq-strength=0.40 / cutree / zone-count=0 / no-strict-cbr / qg-size=32 / no-rc-grain / qpmax=69 / qpmin=0 / no-const-vbv / sar=0 / overscan=0 / videoformat=5 / range=0 / colorprim=2 / transfer=2 / colormatrix=2 / chromaloc=0 / display-window=0 / cll=0,0 / min-luma=0 / max-luma=1023 / log2-max-poc-lsb=8 / vui-timing-info / vui-hrd-info / slices=1 / no-opt-qp-pps / no-opt-ref-list-length-pps / multi-pass-opt-rps / scenecut-bias=0.05 / no-opt-cu-delta-qp / no-aq-motion / no-hdr / no-hdr-opt / no-dhdr10-opt / no-idr-recovery-sei / analysis-load / analysis-reuse-level=10 / scale-factor=0 / refine-intra=0 / refine-inter=0 / refine-mv=1 / refine-ctu-distortion=0 / limit-sao / ctu-info=0 / no-lowpass-dct / refine-analysis-type=0 / copy-pic=1 / max-ausize-factor=1.0 / no-dynamic-refine / no-single-sei / no-hevc-aq / no-svt / no-field / qp-adaptation-range=1.00
  21. Default : Yes
  22. Forced : No

  23. Audio
  24. ID : 2
  25. Format : AAC
  26. Format/Info : Advanced Audio Codec
  27. Format profile : LC
  28. Codec ID : A_AAC
  29. Duration : 2 h 12 min
  30. Bit rate : 402 kb/s
  31. Channel(s) : 6 channels
  32. Channel positions : Front: L C R, Side: L R, LFE
  33. Sampling rate : 48.0 kHz
  34. Frame rate : 46.875 FPS (1024 spf)
  35. Compression mode : Lossy
  36. Delay relative to video : 9 ms
  37. Stream size : 380 MiB (5%)
  38. Language : English
  39. Default : No
  40. Forced : No

  41. Subtitle #1
  42. ID : 3
  43. Format : UTF-8
  44. Codec ID : S_TEXT/UTF8
  45. Codec ID/Info : UTF-8 Plain Text
  46. Duration : 2 h 6 min
  47. Bit rate : 41 b/s
  48. Count of elements : 1212
  49. Stream size : 38.1 KiB (0%)
  50. Language : English
  51. Default : No
  52. Forced : No

  53. Subtitle #2
  54. ID : 4
  55. Format : UTF-8
  56. Codec ID : S_TEXT/UTF8
  57. Codec ID/Info : UTF-8 Plain Text
  58. Duration : 2 h 12 min
  59. Bit rate : 63 b/s
  60. Count of elements : 1231
  61. Stream size : 61.2 KiB (0%)
  62. Language : Arabic
  63. Default : No
  64. Forced : No

  65. Subtitle #3
  66. ID : 5
  67. Format : UTF-8
  68. Codec ID : S_TEXT/UTF8
  69. Codec ID/Info : UTF-8 Plain Text
  70. Duration : 2 h 7 min
  71. Bit rate : 40 b/s
  72. Count of elements : 997
  73. Stream size : 37.9 KiB (0%)
  74. Language : Danish
  75. Default : No
  76. Forced : No

  77. Subtitle #4
  78. ID : 6
  79. Format : UTF-8
  80. Codec ID : S_TEXT/UTF8
  81. Codec ID/Info : UTF-8 Plain Text
  82. Duration : 2 h 7 min
  83. Bit rate : 57 b/s
  84. Count of elements : 1213
  85. Stream size : 54.1 KiB (0%)
  86. Language : Persian
  87. Default : No
  88. Forced : No

  89. Subtitle #5
  90. ID : 7
  91. Format : UTF-8
  92. Codec ID : S_TEXT/UTF8
  93. Codec ID/Info : UTF-8 Plain Text
  94. Duration : 2 h 7 min
  95. Bit rate : 40 b/s
  96. Count of elements : 989
  97. Stream size : 37.9 KiB (0%)
  98. Language : Finnish
  99. Default : No
  100. Forced : No

  101. Subtitle #6
  102. ID : 8
  103. Format : UTF-8
  104. Codec ID : S_TEXT/UTF8
  105. Codec ID/Info : UTF-8 Plain Text
  106. Duration : 2 h 11 min
  107. Bit rate : 37 b/s
  108. Count of elements : 1094
  109. Stream size : 36.2 KiB (0%)
  110. Language : French
  111. Default : No
  112. Forced : No

  113. Subtitle #7
  114. ID : 9
  115. Format : UTF-8
  116. Codec ID : S_TEXT/UTF8
  117. Codec ID/Info : UTF-8 Plain Text
  118. Duration : 2 h 11 min
  119. Bit rate : 42 b/s
  120. Count of elements : 1217
  121. Stream size : 41.2 KiB (0%)
  122. Language : Indonesian
  123. Default : No
  124. Forced : No

  125. Subtitle #8
  126. ID : 10
  127. Format : UTF-8
  128. Codec ID : S_TEXT/UTF8
  129. Codec ID/Info : UTF-8 Plain Text
  130. Duration : 2 h 7 min
  131. Bit rate : 39 b/s
  132. Count of elements : 990
  133. Stream size : 37.1 KiB (0%)
  134. Language : Norwegian Bokmal
  135. Default : No
  136. Forced : No

  137. Subtitle #9
  138. ID : 11
  139. Format : UTF-8
  140. Codec ID : S_TEXT/UTF8
  141. Codec ID/Info : UTF-8 Plain Text
  142. Duration : 2 h 11 min
  143. Bit rate : 42 b/s
  144. Count of elements : 1097
  145. Stream size : 40.7 KiB (0%)
  146. Language : Portuguese
  147. Default : No
  148. Forced : No

  149. Subtitle #10
  150. ID : 12
  151. Format : UTF-8
  152. Codec ID : S_TEXT/UTF8
  153. Codec ID/Info : UTF-8 Plain Text
  154. Duration : 2 h 7 min
  155. Bit rate : 41 b/s
  156. Count of elements : 993
  157. Stream size : 38.3 KiB (0%)
  158. Language : Swedish
  159. Default : No
  160. Forced : No

  161. Subtitle #11
  162. ID : 13
  163. Format : UTF-8
  164. Codec ID : S_TEXT/UTF8
  165. Codec ID/Info : UTF-8 Plain Text
  166. Duration : 2 h 12 min
  167. Bit rate : 87 b/s
  168. Count of elements : 1230
  169. Stream size : 84.4 KiB (0%)
  170. Language : Thai
  171. Default : No
  172. Forced : No

  173. Subtitle #12
  174. ID : 14
  175. Format : UTF-8
  176. Codec ID : S_TEXT/UTF8
  177. Codec ID/Info : UTF-8 Plain Text
  178. Duration : 2 h 7 min
  179. Bit rate : 51 b/s
  180. Count of elements : 1194
  181. Stream size : 47.9 KiB (0%)
  182. Language : Vietnamese
  183. Default : No
  184. Forced : No
复制代码

骑士传奇 / 狂野武士(港) / 骑士风云录(台) / 骑士传说/圣战骑士4k A Knights Tale 2001 2160p BluRay x265 HEVC AI 10bit AAC 5.1-4k电影下载
圣战骑士4k A Knights Tale 2001 2160p BluRay x265 HEVC AI 10bit AAC 5.1【7.8 GB】
圣战骑士4k.txt
(96 Bytes)
回复

使用道具 举报

发烧友评论17

倒序浏览
无厘鼎 发表于 2020-9-19 22:55:11 | 显示全部楼层
这个片子蛮好看的,不知道速度有不
回复 支持 反对

使用道具 举报

leon7799 发表于 2020-9-17 08:00:06 | 显示全部楼层
待修复什么,之前的我已经下了看了没问题啊
回复 支持 反对

使用道具 举报

lywzj238 发表于 2020-9-15 04:20:05 | 显示全部楼层
谢谢分享好电影
回复 支持 反对

使用道具 举报

ywf6168 发表于 2020-9-11 10:51:34 | 显示全部楼层
谢谢分享,不错影片
回复 支持 反对

使用道具 举报

Liuxudong926 发表于 2020-9-10 21:14:28 | 显示全部楼层
cni_23@163.com 发表于 2020-9-10 08:24
电影里的游吟诗人是最有趣的

那个诗人感觉有点像现在拳击比赛的主持人?
回复 支持 反对

使用道具 举报

cqjjtf01 发表于 2020-9-10 08:51:25 | 显示全部楼层
电影歌曲we will rock you,第一看的时候,超震撼。
回复 支持 反对

使用道具 举报

cni_23@163.com 发表于 2020-9-10 08:24:10 | 显示全部楼层
电影里的游吟诗人是最有趣的
回复 支持 反对

使用道具 举报

Liuxudong926 发表于 2020-9-10 08:05:32 Hao4K手机版 | 显示全部楼层
感谢分享,这是希斯莱杰的遗作了,很喜欢!用现代的方式讲过去的故事,就是感觉女主角还没有铁匠好看!
回复 支持 反对

使用道具 举报

jiujiupi 发表于 2020-9-10 06:58:35 | 显示全部楼层
帖子怎么又换成这种式样了?不如海报式样好看
回复 支持 反对

使用道具 举报

dyczw 发表于 2020-9-10 06:53:29 | 显示全部楼层
感谢分享,辛苦了
回复 支持 反对

使用道具 举报

罗伯特基佬曼 发表于 2020-9-10 01:58:11 | 显示全部楼层
这电影开头是 we will rock you,挺好看的,以前cctv6佳片有约放过
回复 支持 反对

使用道具 举报

七彩黄山 发表于 2020-9-10 00:04:12 | 显示全部楼层
下载的种子显示无效。
回复 支持 反对

使用道具 举报

Hao4k网友  发表于 2020-9-10 00:02:16
哈哈哈哈哈jjj
回复 支持 反对

使用道具

极星永耀 发表于 2020-9-9 22:49:55 | 显示全部楼层
20年前的影片了
回复 支持 反对

使用道具 举报

您需要登录后才可以回帖 登录 | 立即注册

本版积分规则


0关注

13粉丝

56帖子

热门图文主题
热门主题
社区广告

在线客服

在线客服

服务时间 9:00—18:00

返回顶部

关注微信公众号第一时间推送精彩

官方微信

手机访问

Hao4K影音

专注4k家庭影音,提供家庭影音社区,家庭影音器材库,影音问答平台,影音商城,服务千万家庭影音用户。

本站内容部分由用户自主分享和转载自互联网,转载目的在于传递更多信息,并不代表本网赞同其观点和对其真实性负责。

如有侵权、违反国家法律政策行为,请联系我们,我们会第一时间及时清除和处理!

举报反馈邮箱:admin@hao4k.cn

Copyright  2019-2020  Hao4K影音粤公网安备 44030302001429号    ( 粤ICP备18155646号-1 )|网站地图