专注4K家庭影音, 服务千万家庭影音发烧友!

[美剧] 远漂4k Away 2020 Season 01 S01 2160p.4k电视剧下载

碧池 发表于 2020-9-13 15:28:57 | 显示全部楼层
电视剧频道
电视剧封面:
电视剧名: 远漂4k
年  代: 2020  
国  家: 美国
类  别: 剧情 
语  言: 英语
字  幕: 英文原版
上映日期: 2020-09-04
文件格式: mkv    
视频效果: 4K(3840x2160)    
资源大小: 14.5 GB
片  长: 60 分钟
导  演: 大卫·博伊德 / 夏洛特·布伦斯特伦 / 布朗温·休斯 / 杰弗里·莱纳 / 杰特·威尔金森 / 爱德华·兹威克
剧情简介: Netflix 剧集《远漂》由安德鲁·欣德雷克打造,是一部史诗级的感人剧情片,歌颂了人类所能取得的不可思议的进步,以及在这一过程中所必须做出的个人牺牲。当美国宇航员艾玛·格林(希拉里·斯万克饰)准备率领国际团队首次前往火星执行任务时,她不得不权衡自己的决定,在丈夫(乔西·查尔斯饰)和十几岁的女儿(特丽莎·贝特曼饰)最需要她的时候离开他们。随着宇航员太空之旅的任务不断加重,他们的个人互动以及远离地球亲人对其造成的影响变得越来越复杂。《远漂》告诉我们,有时候要想实现梦想,我们必须背井离乡。该剧由剧集主管杰西卡·戈德堡、马特·里夫斯、杰森·卡蒂玛姆利、 爱德华·兹威克、希拉里·斯万克、亚当·卡桑、安德鲁·欣德雷克、詹尼·穆莱因和米歇尔·李担任监制。
远漂4k Away 2020 Season 01 S01 2160p NF WEBRip NVENC HEVC 10bit AAC 5.1 电视剧信息
  1. Video
  2. ID : 1
  3. Format : HEVC
  4. Format/Info : High Efficiency Video Coding
  5. Codec ID : V_MPEGH/ISO/HEVC
  6. Duration : 56 min 43 s
  7. Bit rate : 4 006 kb/s
  8. Width : 3 840 pixels
  9. Height : 1 744 pixels
  10. Display aspect ratio : 2.2:1
  11. Frame rate mode : Constant
  12. Frame rate : 23.976 (24000/1001) FPS
  13. Color space : YUV
  14. Chroma subsampling : 4:2:0
  15. Bit depth : 10 bits
  16. Bits/(Pixel*Frame) : 0.025
  17. Stream size : 1.59 GiB (94%)
  18. Default : Yes
  19. Forced : No
  20. Color range : Limited
  21. Matrix coefficients : BT.709

  22. Audio
  23. ID : 2
  24. Format : AAC
  25. Format/Info : Advanced Audio Codec
  26. Format profile : LC
  27. Codec ID : A_AAC
  28. Duration : 56 min 43 s
  29. Bit rate : 236 kb/s
  30. Channel(s) : 6 channels
  31. Channel positions : Front: L C R, Side: L R, LFE
  32. Sampling rate : 48.0 kHz
  33. Frame rate : 46.875 FPS (1024 spf)
  34. Compression mode : Lossy
  35. Delay relative to video : 9 ms
  36. Stream size : 95.9 MiB (6%)
  37. Language : English
  38. Default : No
  39. Forced : No

  40. Subtitle #1
  41. ID : 3
  42. Format : UTF-8
  43. Codec ID : S_TEXT/UTF8
  44. Codec ID/Info : UTF-8 Plain Text
  45. Duration : 9 s 593 ms
  46. Bit rate : 144 b/s
  47. Count of elements : 4
  48. Stream size : 173 Bytes (0%)
  49. Language : English
  50. Default : No
  51. Forced : Yes

  52. Subtitle #2
  53. ID : 4
  54. Format : UTF-8
  55. Codec ID : S_TEXT/UTF8
  56. Codec ID/Info : UTF-8 Plain Text
  57. Duration : 55 min 2 s
  58. Bit rate : 81 b/s
  59. Count of elements : 945
  60. Stream size : 32.8 KiB (0%)
  61. Language : English
  62. Default : No
  63. Forced : No

  64. Subtitle #3
  65. ID : 5
  66. Format : UTF-8
  67. Codec ID : S_TEXT/UTF8
  68. Codec ID/Info : UTF-8 Plain Text
  69. Duration : 56 min 24 s
  70. Bit rate : 109 b/s
  71. Count of elements : 796
  72. Stream size : 45.1 KiB (0%)
  73. Language : Arabic
  74. Default : No
  75. Forced : No

  76. Subtitle #4
  77. ID : 6
  78. Format : UTF-8
  79. Codec ID : S_TEXT/UTF8
  80. Codec ID/Info : UTF-8 Plain Text
  81. Duration : 56 min 24 s
  82. Bit rate : 62 b/s
  83. Count of elements : 750
  84. Stream size : 25.9 KiB (0%)
  85. Language : Czech
  86. Default : No
  87. Forced : No

  88. Subtitle #5
  89. ID : 7
  90. Format : UTF-8
  91. Codec ID : S_TEXT/UTF8
  92. Codec ID/Info : UTF-8 Plain Text
  93. Duration : 56 min 24 s
  94. Bit rate : 60 b/s
  95. Count of elements : 716
  96. Stream size : 24.8 KiB (0%)
  97. Language : Danish
  98. Default : No
  99. Forced : No

  100. Subtitle #6
  101. ID : 8
  102. Format : UTF-8
  103. Codec ID : S_TEXT/UTF8
  104. Codec ID/Info : UTF-8 Plain Text
  105. Duration : 56 min 24 s
  106. Bit rate : 63 b/s
  107. Count of elements : 757
  108. Stream size : 26.4 KiB (0%)
  109. Language : German
  110. Default : No
  111. Forced : No

  112. Subtitle #7
  113. ID : 9
  114. Format : UTF-8
  115. Codec ID : S_TEXT/UTF8
  116. Codec ID/Info : UTF-8 Plain Text
  117. Duration : 56 min 24 s
  118. Bit rate : 104 b/s
  119. Count of elements : 836
  120. Stream size : 43.3 KiB (0%)
  121. Language : Greek
  122. Default : No
  123. Forced : No

  124. Subtitle #8
  125. ID : 10
  126. Format : UTF-8
  127. Codec ID : S_TEXT/UTF8
  128. Codec ID/Info : UTF-8 Plain Text
  129. Duration : 56 min 24 s
  130. Bit rate : 61 b/s
  131. Count of elements : 776
  132. Stream size : 25.4 KiB (0%)
  133. Language : Spanish
  134. Default : No
  135. Forced : No

  136. Subtitle #9
  137. ID : 11
  138. Format : UTF-8
  139. Codec ID : S_TEXT/UTF8
  140. Codec ID/Info : UTF-8 Plain Text
  141. Duration : 56 min 24 s
  142. Bit rate : 60 b/s
  143. Count of elements : 766
  144. Stream size : 24.8 KiB (0%)
  145. Language : Spanish
  146. Default : No
  147. Forced : No

  148. Subtitle #10
  149. ID : 12
  150. Format : UTF-8
  151. Codec ID : S_TEXT/UTF8
  152. Codec ID/Info : UTF-8 Plain Text
  153. Duration : 56 min 24 s
  154. Bit rate : 62 b/s
  155. Count of elements : 712
  156. Stream size : 25.6 KiB (0%)
  157. Language : Finnish
  158. Default : No
  159. Forced : No

  160. Subtitle #11
  161. ID : 13
  162. Format : UTF-8
  163. Codec ID : S_TEXT/UTF8
  164. Codec ID/Info : UTF-8 Plain Text
  165. Duration : 56 min 24 s
  166. Bit rate : 63 b/s
  167. Count of elements : 769
  168. Stream size : 26.2 KiB (0%)
  169. Language : French
  170. Default : No
  171. Forced : No

  172. Subtitle #12
  173. ID : 14
  174. Format : UTF-8
  175. Codec ID : S_TEXT/UTF8
  176. Codec ID/Info : UTF-8 Plain Text
  177. Duration : 56 min 24 s
  178. Bit rate : 100 b/s
  179. Count of elements : 797
  180. Stream size : 41.5 KiB (0%)
  181. Language : Hebrew
  182. Default : No
  183. Forced : No

  184. Subtitle #13
  185. ID : 15
  186. Format : UTF-8
  187. Codec ID : S_TEXT/UTF8
  188. Codec ID/Info : UTF-8 Plain Text
  189. Duration : 56 min 26 s
  190. Bit rate : 53 b/s
  191. Count of elements : 753
  192. Stream size : 22.3 KiB (0%)
  193. Language : Croatian
  194. Default : No
  195. Forced : No

  196. Subtitle #14
  197. ID : 16
  198. Format : UTF-8
  199. Codec ID : S_TEXT/UTF8
  200. Codec ID/Info : UTF-8 Plain Text
  201. Duration : 56 min 24 s
  202. Bit rate : 60 b/s
  203. Count of elements : 735
  204. Stream size : 24.9 KiB (0%)
  205. Language : Hungarian
  206. Default : No
  207. Forced : No

  208. Subtitle #15
  209. ID : 17
  210. Format : UTF-8
  211. Codec ID : S_TEXT/UTF8
  212. Codec ID/Info : UTF-8 Plain Text
  213. Duration : 56 min 24 s
  214. Bit rate : 60 b/s
  215. Count of elements : 799
  216. Stream size : 25.1 KiB (0%)
  217. Language : Indonesian
  218. Default : No
  219. Forced : No

  220. Subtitle #16
  221. ID : 18
  222. Format : UTF-8
  223. Codec ID : S_TEXT/UTF8
  224. Codec ID/Info : UTF-8 Plain Text
  225. Duration : 56 min 24 s
  226. Bit rate : 60 b/s
  227. Count of elements : 760
  228. Stream size : 24.8 KiB (0%)
  229. Language : Italian
  230. Default : No
  231. Forced : No

  232. Subtitle #17
  233. ID : 19
  234. Format : UTF-8
  235. Codec ID : S_TEXT/UTF8
  236. Codec ID/Info : UTF-8 Plain Text
  237. Duration : 56 min 23 s
  238. Bit rate : 60 b/s
  239. Count of elements : 796
  240. Stream size : 25.1 KiB (0%)
  241. Language : Japanese
  242. Default : No
  243. Forced : No

  244. Subtitle #18
  245. ID : 20
  246. Format : UTF-8
  247. Codec ID : S_TEXT/UTF8
  248. Codec ID/Info : UTF-8 Plain Text
  249. Duration : 56 min 24 s
  250. Bit rate : 78 b/s
  251. Count of elements : 808
  252. Stream size : 32.6 KiB (0%)
  253. Language : Korean
  254. Default : No
  255. Forced : No

  256. Subtitle #19
  257. ID : 21
  258. Format : UTF-8
  259. Codec ID : S_TEXT/UTF8
  260. Codec ID/Info : UTF-8 Plain Text
  261. Duration : 56 min 24 s
  262. Bit rate : 74 b/s
  263. Count of elements : 802
  264. Stream size : 30.6 KiB (0%)
  265. Language : Malay
  266. Default : No
  267. Forced : No

  268. Subtitle #20
  269. ID : 22
  270. Format : UTF-8
  271. Codec ID : S_TEXT/UTF8
  272. Codec ID/Info : UTF-8 Plain Text
  273. Duration : 56 min 25 s
  274. Bit rate : 64 b/s
  275. Count of elements : 676
  276. Stream size : 26.6 KiB (0%)
  277. Language : Norwegian Bokmal
  278. Default : No
  279. Forced : No

  280. Subtitle #21
  281. ID : 23
  282. Format : UTF-8
  283. Codec ID : S_TEXT/UTF8
  284. Codec ID/Info : UTF-8 Plain Text
  285. Duration : 56 min 24 s
  286. Bit rate : 56 b/s
  287. Count of elements : 726
  288. Stream size : 23.5 KiB (0%)
  289. Language : Dutch
  290. Default : No
  291. Forced : No

  292. Subtitle #22
  293. ID : 24
  294. Format : UTF-8
  295. Codec ID : S_TEXT/UTF8
  296. Codec ID/Info : UTF-8 Plain Text
  297. Duration : 56 min 23 s
  298. Bit rate : 61 b/s
  299. Count of elements : 790
  300. Stream size : 25.3 KiB (0%)
  301. Language : Polish
  302. Default : No
  303. Forced : No

  304. Subtitle #23
  305. ID : 25
  306. Format : UTF-8
  307. Codec ID : S_TEXT/UTF8
  308. Codec ID/Info : UTF-8 Plain Text
  309. Duration : 56 min 24 s
  310. Bit rate : 62 b/s
  311. Count of elements : 762
  312. Stream size : 25.8 KiB (0%)
  313. Language : Portuguese
  314. Default : No
  315. Forced : No

  316. Subtitle #24
  317. ID : 26
  318. Format : UTF-8
  319. Codec ID : S_TEXT/UTF8
  320. Codec ID/Info : UTF-8 Plain Text
  321. Duration : 55 min 3 s
  322. Bit rate : 64 b/s
  323. Count of elements : 793
  324. Stream size : 26.0 KiB (0%)
  325. Language : Portuguese
  326. Default : No
  327. Forced : No

  328. Subtitle #25
  329. ID : 27
  330. Format : UTF-8
  331. Codec ID : S_TEXT/UTF8
  332. Codec ID/Info : UTF-8 Plain Text
  333. Duration : 54 min 40 s
  334. Bit rate : 69 b/s
  335. Count of elements : 740
  336. Stream size : 27.9 KiB (0%)
  337. Language : Romanian
  338. Default : No
  339. Forced : No

  340. Subtitle #26
  341. ID : 28
  342. Format : UTF-8
  343. Codec ID : S_TEXT/UTF8
  344. Codec ID/Info : UTF-8 Plain Text
  345. Duration : 56 min 24 s
  346. Bit rate : 95 b/s
  347. Count of elements : 888
  348. Stream size : 39.5 KiB (0%)
  349. Language : Russian
  350. Default : No
  351. Forced : No

  352. Subtitle #27
  353. ID : 29
  354. Format : UTF-8
  355. Codec ID : S_TEXT/UTF8
  356. Codec ID/Info : UTF-8 Plain Text
  357. Duration : 56 min 24 s
  358. Bit rate : 65 b/s
  359. Count of elements : 790
  360. Stream size : 27.3 KiB (0%)
  361. Language : Swedish
  362. Default : No
  363. Forced : No

  364. Subtitle #28
  365. ID : 30
  366. Format : UTF-8
  367. Codec ID : S_TEXT/UTF8
  368. Codec ID/Info : UTF-8 Plain Text
  369. Duration : 56 min 24 s
  370. Bit rate : 153 b/s
  371. Count of elements : 810
  372. Stream size : 63.2 KiB (0%)
  373. Language : Thai
  374. Default : No
  375. Forced : No

  376. Subtitle #29
  377. ID : 31
  378. Format : UTF-8
  379. Codec ID : S_TEXT/UTF8
  380. Codec ID/Info : UTF-8 Plain Text
  381. Duration : 56 min 24 s
  382. Bit rate : 62 b/s
  383. Count of elements : 701
  384. Stream size : 26.0 KiB (0%)
  385. Language : Turkish
  386. Default : No
  387. Forced : No

  388. Subtitle #30
  389. ID : 32
  390. Format : UTF-8
  391. Codec ID : S_TEXT/UTF8
  392. Codec ID/Info : UTF-8 Plain Text
  393. Duration : 56 min 24 s
  394. Bit rate : 88 b/s
  395. Count of elements : 775
  396. Stream size : 36.5 KiB (0%)
  397. Language : Vietnamese
  398. Default : No
  399. Forced : No

  400. Subtitle #31
  401. ID : 33
  402. Format : UTF-8
  403. Codec ID : S_TEXT/UTF8
  404. Codec ID/Info : UTF-8 Plain Text
  405. Duration : 54 min 40 s
  406. Bit rate : 73 b/s
  407. Count of elements : 811
  408. Stream size : 29.6 KiB (0%)
  409. Language : Chinese
  410. Default : No
  411. Forced : No

  412. Subtitle #32
  413. ID : 34
  414. Format : UTF-8
  415. Codec ID : S_TEXT/UTF8
  416. Codec ID/Info : UTF-8 Plain Text
  417. Duration : 56 min 24 s
  418. Bit rate : 66 b/s
  419. Count of elements : 934
  420. Stream size : 27.4 KiB (0%)
  421. Language : Chinese
  422. Default : No
  423. Forced : No
复制代码

远漂4k Away 2020 Season 01 S01 2160p NF WEBRip NVENC HEVC 10bit AAC 5.1 电视剧下载

远漂4k Away 2020 Season 01 S01 2160p NF WEBRip NVENC HEVC 10bit AAC 5.1 【14.5 GB】
远漂4k.txt
(90 Bytes)
回复

使用道具 举报

发烧友评论3

倒序浏览
Mrleaf 发表于 2020-9-16 09:07:19 | 显示全部楼层
谢谢大佬的资源
回复 支持 反对

使用道具 举报

您需要登录后才可以回帖 登录 | 立即注册

本版积分规则

在线客服

在线客服

服务时间 9:00—18:00

返回顶部

关注微信公众号第一时间推送精彩

官方微信

手机访问

Hao4K影音

专注4k家庭影音,提供家庭影音社区,家庭影音器材库,影音问答平台,影音商城,服务千万家庭影音用户。

本站内容部分由用户自主分享和转载自互联网,转载目的在于传递更多信息,并不代表本网赞同其观点和对其真实性负责。

如有侵权、违反国家法律政策行为,请联系我们,我们会第一时间及时清除和处理!

举报反馈邮箱:admin@hao4k.cn

Copyright  2019-2020  Hao4K影音粤公网安备 44030302001429号    ( 粤ICP备18155646号-1 )|网站地图