专注4K家庭影音, 服务千万家庭影音发烧友!

[美剧] 环形物语4k Tales From The Loop 2020)Season 01 S01 2160p电视剧下载

碧池 发表于 2020-9-15 11:13:53 | 显示全部楼层
电视剧频道
电视剧封面:
电视剧名: 环形物语4k
年  代: 2020  
国  家: 美国
类  别: 科幻 剧情 
语  言: 英语
字  幕: 英文原版
上映日期: 2020-04-03
文件格式: mkv    
视频效果: 4K(3840x2160)    
资源大小: 13 GB
片  长: 55 分钟
导  演: 马克·罗曼尼克 / 金素英 / 迪尔巴拉·沃尔什 / 安德鲁·斯坦顿 / 蒂姆·米兰特斯 / 查理·麦克道威尔 / 缇·威斯特 / 朱迪·福斯特
剧情简介: 亚马逊预定了一部8集的科幻剧集《环形故事》(Tales From The Loop),基于瑞典艺术家Simon Stålenhag创作的科幻画作,Nathaniel Halpern(《大群》)编写剧本,马克·罗曼尼克(《别让我走》《黑胶时代》)执导,马特·里夫斯的制片公司6th & Idaho、瑞典的Indio、Fox 21联合制作。
  画作探索了一群生活在“The Loop”之上的人民的生活,The Loop是一个为了探索和解开宇宙奥秘的机器,它使以前只有科幻小说里才有的东西成为可能。在这个奇幻、神秘的小镇上,讲述着辛酸的人类故事,讲述着赤裸裸的普遍情感体验,同时又利用了流派叙事的计谋。
环形物语4k Tales From The Loop 2020 Season 01 S01 2160p WEB-DL NVENC HEVC 10bit AAC 5.1电视剧信息
  1. Video
  2. ID                                       : 1
  3. Format                                   : HEVC
  4. Format/Info                              : High Efficiency Video Coding
  5. Codec ID                                 : V_MPEGH/ISO/HEVC
  6. Duration                                 : 54 min 19 s
  7. Bit rate                                 : 4 061 kb/s
  8. Width                                    : 3 840 pixels
  9. Height                                   : 2 160 pixels
  10. Display aspect ratio                     : 16:9
  11. Frame rate mode                          : Constant
  12. Frame rate                               : 23.976 (24000/1001) FPS
  13. Color space                              : YUV
  14. Chroma subsampling                       : 4:2:0
  15. Bit depth                                : 10 bits
  16. Bits/(Pixel*Frame)                       : 0.020
  17. Stream size                              : 1.54 GiB (94%)
  18. Default                                  : Yes
  19. Forced                                   : No
  20. Color range                              : Limited
  21. Matrix coefficients                      : BT.709

  22. Audio
  23. ID                                       : 2
  24. Format                                   : AAC
  25. Format/Info                              : Advanced Audio Codec
  26. Format profile                           : LC
  27. Codec ID                                 : A_AAC
  28. Duration                                 : 54 min 19 s
  29. Bit rate                                 : 240 kb/s
  30. Channel(s)                               : 6 channels
  31. Channel positions                        : Front: L C R, Side: L R, LFE
  32. Sampling rate                            : 48.0 kHz
  33. Frame rate                               : 46.875 FPS (1024 spf)
  34. Compression mode                         : Lossy
  35. Delay relative to video                  : 9 ms
  36. Stream size                              : 93.4 MiB (6%)
  37. Language                                 : English
  38. Default                                  : No
  39. Forced                                   : No

  40. Subtitle
  41. ID                                       : 3
  42. Format                                   : UTF-8
  43. Codec ID                                 : S_TEXT/UTF8
  44. Codec ID/Info                            : UTF-8 Plain Text
  45. Duration                                 : 51 min 35 s
  46. Bit rate                                 : 25 b/s
  47. Count of elements                        : 428
  48. Stream size                              : 9.81 KiB (0%)
  49. Title                                    : English (SDH)
  50. Language                                 : English
  51. Default                                  : No
  52. Forced                                   : No
复制代码

环形物语4k Tales From The Loop 2020)Season 01 S01 2160p WEB-DL NVENC HEVC 10bit AAC 5.1电视剧下载

环形物语4k Tales From The Loop 2020)Season 01 S01 2160p WEB-DL NVENC HEVC 10bit AAC 5.1【13 GB】
环形物语4k.txt
(100 Bytes)
回复

使用道具 举报

发烧友评论3

倒序浏览
slimboy 发表于 2020-9-21 08:56:04 | 显示全部楼层
就是想看这个 刚看完怪奇物语
回复 支持 反对

使用道具 举报

LIU1983 发表于 2020-9-19 10:41:01 | 显示全部楼层
下了两次,都是第二集看着下不完,都一周了
回复 支持 反对

使用道具 举报

nbmsa 发表于 2020-9-15 11:51:11 | 显示全部楼层
1-8居然齐了。。。还以为只有第一集
不错,辛苦了
回复 支持 反对

使用道具 举报

您需要登录后才可以回帖 登录 | 立即注册

本版积分规则

在线客服

在线客服

服务时间 9:00—18:00

返回顶部

关注微信公众号第一时间推送精彩

官方微信

手机访问

Hao4K影音

专注4k家庭影音,提供家庭影音社区,家庭影音器材库,影音问答平台,影音商城,服务千万家庭影音用户。

本站内容部分由用户自主分享和转载自互联网,转载目的在于传递更多信息,并不代表本网赞同其观点和对其真实性负责。

如有侵权、违反国家法律政策行为,请联系我们,我们会第一时间及时清除和处理!

举报反馈邮箱:admin@hao4k.cn

Copyright  2019-2020  Hao4K影音粤公网安备 44030302001429号    ( 粤ICP备18155646号-1 )|网站地图