专注4K家庭影音, 服务千万家庭影音发烧友!

[美剧] 黑袍纠察队 第二季4k The.Boys.S02E01.2160p.AMZN.WEBRip.x265.10bit.HDR10Plus.DDP5.1-4k美剧下载

大红色 发表于 2020-9-16 10:58:21 | 显示全部楼层
电视剧频道
电视剧封面:
电视剧名: 黑袍纠察队 第二季4k
年  代: 2020  
国  家: 美国
类  别: 动作 科幻 犯罪 喜剧 
语  言: 英语
字  幕: 英文原版
上映日期: 2020-09-04
文件格式: mkv    
视频效果: 4K(3840x2160)    
资源大小: 11.89 GB
片  长: 60 分钟
导  演: 菲利浦·斯格里西亚 / 塞巴斯蒂安·席尔瓦
剧情简介: 剧中讲述一群被旁人称为「The Boys」的义警,他们专门对付因为自身能力而腐败﹑黑化的超级英雄。而他们的大目标就是金玉其外,败絮其中的英雄团队「The Seven」,以及管理团队﹑掩盖黑料的企业「Vought」。
男孩帮 / 黑衣小队 / 七痞郎 / 英雄克星/黑袍纠察队 第二季4k The.Boys.S02E01.2160p.AMZN.WEBRip.x265.10bit.HDR10Plus.DDP5.1-4k美剧信息
  1. Video
  2. ID : 1
  3. Format : HEVC
  4. Format/Info : High Efficiency Video Coding
  5. Format profile : Main 10@L5@High
  6. HDR format : SMPTE ST 2094 App 4, Version 1, HDR10+ Profile B compatible
  7. Codec ID : V_MPEGH/ISO/HEVC
  8. Duration : 1 h 2 min
  9. Bit rate : 26.4 Mb/s
  10. Width : 3 840 pixels
  11. Height : 1 600 pixels
  12. Display aspect ratio : 2.40:1
  13. Frame rate mode : Constant
  14. Frame rate : 23.976 (24000/1001) FPS
  15. Color space : YUV
  16. Chroma subsampling : 4:2:0
  17. Bit depth : 10 bits
  18. Bits/(Pixel*Frame) : 0.179
  19. Stream size : 11.6 GiB (98%)
  20. Writing library : x265 3.4+12-geff904199:[Windows][MSVC 1900][64 bit] 10bit
  21. Encoding settings : cpuid=1111039 / frame-threads=2 / numa-pools=6 / wpp / no-pmode / no-pme / no-psnr / no-ssim / log-level=2 / input-csp=1 / input-res=3840x1600 / interlace=0 / total-frames=90564 / level-idc=50 / high-tier=1 / uhd-bd=0 / ref=6 / no-allow-non-conformance / repeat-headers / annexb / no-aud / no-hrd / info / hash=0 / no-temporal-layers / no-open-gop / min-keyint=23 / keyint=250 / gop-lookahead=0 / bframes=16 / b-adapt=2 / b-pyramid / bframe-bias=0 / rc-lookahead=60 / lookahead-slices=0 / scenecut=40 / hist-scenecut=0 / radl=0 / no-splice / no-intra-refresh / ctu=64 / min-cu-size=8 / no-rect / no-amp / max-tu-size=32 / tu-inter-depth=4 / tu-intra-depth=4 / limit-tu=4 / rdoq-level=2 / dynamic-rd=0.00 / no-ssim-rd / signhide / no-tskip / nr-intra=0 / nr-inter=0 / no-constrained-intra / strong-intra-smoothing / max-merge=4 / limit-refs=1 / limit-modes / me=3 / subme=5 / merange=57 / temporal-mvp / no-frame-dup / no-hme / weightp / weightb / no-analyze-src-pics / deblock=-3:-3 / no-sao / no-sao-non-deblock / rd=4 / selective-sao=0 / no-early-skip / no-rskip / no-fast-intra / no-tskip-fast / no-cu-lossless / b-intra / no-splitrd-skip / rdpenalty=0 / psy-rd=1.30 / psy-rdoq=1.00 / no-rd-refine / no-lossless / cbqpoffs=0 / crqpoffs=0 / rc=crf / crf=16.0 / qcomp=0.65 / qpstep=4 / stats-write=0 / stats-read=0 / vbv-maxrate=100000 / vbv-bufsize=100000 / vbv-init=0.9 / crf-max=0.0 / crf-min=0.0 / ipratio=1.30 / pbratio=1.20 / aq-mode=3 / aq-strength=0.85 / no-cutree / zone-count=0 / no-strict-cbr / qg-size=16 / no-rc-grain / qpmax=69 / qpmin=0 / no-const-vbv / sar=0 / overscan=0 / videoformat=5 / range=0 / colorprim=9 / transfer=16 / colormatrix=9 / chromaloc=0 / display-window=0 / master-display=G(13250,34500)B(7500,3000)R(34000,16000)WP(15635,16450)L(10000000,1) / cll=999,200 / min-luma=0 / max-luma=1023 / log2-max-poc-lsb=8 / vui-timing-info / vui-hrd-info / slices=1 / no-opt-qp-pps / no-opt-ref-list-length-pps / no-multi-pass-opt-rps / scenecut-bias=0.05 / hist-threshold=0.03 / no-opt-cu-delta-qp / no-aq-motion / hdr10 / hdr10-opt / dhdr10-opt / no-idr-recovery-sei / analysis-reuse-level=0 / analysis-save-reuse-level=0 / analysis-load-reuse-level=0 / scale-factor=0 / refine-intra=0 / refine-inter=0 / refine-mv=1 / refine-ctu-distortion=0 / no-limit-sao / ctu-info=0 / no-lowpass-dct / refine-analysis-type=0 / copy-pic=1 / max-ausize-factor=1.0 / no-dynamic-refine / no-single-sei / no-hevc-aq / no-svt / no-field / qp-adaptation-range=1.00 / no-scenecut-aware-qpconformance-window-offsets / right=0 / bottom=0 / decoder-max-rate=0
  22. Language : English
  23. Default : Yes
  24. Forced : No
  25. Color range : Limited
  26. Color primaries : BT.2020
  27. Transfer characteristics : PQ
  28. Matrix coefficients : BT.2020 non-constant
  29. Mastering display color primaries : Display P3
  30. Mastering display luminance : min: 0.0001 cd/m2, max: 1000 cd/m2
  31. Maximum Content Light Level : 999 cd/m2
  32. Maximum Frame-Average Light Level : 200 cd/m2

  33. Audio
  34. ID : 2
  35. Format : E-AC-3
  36. Format/Info : Enhanced AC-3
  37. Commercial name : Dolby Digital Plus
  38. Codec ID : A_EAC3
  39. Duration : 1 h 2 min
  40. Bit rate mode : Constant
  41. Bit rate : 640 kb/s
  42. Channel(s) : 6 channels
  43. Channel layout : L R C LFE Ls Rs
  44. Sampling rate : 48.0 kHz
  45. Frame rate : 31.250 FPS (1536 SPF)
  46. Compression mode : Lossy
  47. Stream size : 288 MiB (2%)
  48. Language : English
  49. Service kind : Complete Main
  50. Default : Yes
  51. Forced : No

  52. Text #1
  53. ID : 3
  54. Format : UTF-8
  55. Codec ID : S_TEXT/UTF8
  56. Codec ID/Info : UTF-8 Plain Text
  57. Duration : 24 s 608 ms
  58. Bit rate : 58 b/s
  59. Count of elements : 8
  60. Stream size : 179 Bytes (0%)
  61. Title : Forced
  62. Language : English
  63. Default : No
  64. Forced : Yes

  65. Text #2
  66. ID : 4
  67. Format : UTF-8
  68. Codec ID : S_TEXT/UTF8
  69. Codec ID/Info : UTF-8 Plain Text
  70. Duration : 1 h 2 min
  71. Bit rate : 72 b/s
  72. Count of elements : 1148
  73. Stream size : 33.1 KiB (0%)
  74. Language : English
  75. Default : No
  76. Forced : No

  77. Text #3
  78. ID : 5
  79. Format : UTF-8
  80. Codec ID : S_TEXT/UTF8
  81. Codec ID/Info : UTF-8 Plain Text
  82. Duration : 1 h 2 min
  83. Bit rate : 72 b/s
  84. Count of elements : 1164
  85. Stream size : 33.2 KiB (0%)
  86. Title : SDH
  87. Language : English
  88. Default : No
  89. Forced : No

  90. Text #4
  91. ID : 6
  92. Format : UTF-8
  93. Codec ID : S_TEXT/UTF8
  94. Codec ID/Info : UTF-8 Plain Text
  95. Duration : 1 h 2 min
  96. Bit rate : 99 b/s
  97. Count of elements : 903
  98. Stream size : 45.3 KiB (0%)
  99. Language : Arabic
  100. Default : No
  101. Forced : No

  102. Text #5
  103. ID : 7
  104. Format : UTF-8
  105. Codec ID : S_TEXT/UTF8
  106. Codec ID/Info : UTF-8 Plain Text
  107. Duration : 1 h 2 min
  108. Bit rate : 58 b/s
  109. Count of elements : 903
  110. Stream size : 26.8 KiB (0%)
  111. Title : Simplified
  112. Language : Chinese
  113. Default : No
  114. Forced : No

  115. Text #6
  116. ID : 8
  117. Format : UTF-8
  118. Codec ID : S_TEXT/UTF8
  119. Codec ID/Info : UTF-8 Plain Text
  120. Duration : 1 h 2 min
  121. Bit rate : 54 b/s
  122. Count of elements : 903
  123. Stream size : 24.7 KiB (0%)
  124. Title : Traditional
  125. Language : Chinese
  126. Default : No
  127. Forced : No

  128. Text #7
  129. ID : 9
  130. Format : UTF-8
  131. Codec ID : S_TEXT/UTF8
  132. Codec ID/Info : UTF-8 Plain Text
  133. Duration : 1 h 2 min
  134. Bit rate : 54 b/s
  135. Count of elements : 894
  136. Stream size : 24.8 KiB (0%)
  137. Language : Danish
  138. Default : No
  139. Forced : No

  140. Text #8
  141. ID : 10
  142. Format : UTF-8
  143. Codec ID : S_TEXT/UTF8
  144. Codec ID/Info : UTF-8 Plain Text
  145. Duration : 1 h 2 min
  146. Bit rate : 56 b/s
  147. Count of elements : 901
  148. Stream size : 25.6 KiB (0%)
  149. Language : Finnish
  150. Default : No
  151. Forced : No

  152. Text #9
  153. ID : 11
  154. Format : UTF-8
  155. Codec ID : S_TEXT/UTF8
  156. Codec ID/Info : UTF-8 Plain Text
  157. Duration : 1 h 2 min
  158. Bit rate : 56 b/s
  159. Count of elements : 886
  160. Stream size : 25.9 KiB (0%)
  161. Language : fil
  162. Default : No
  163. Forced : No

  164. Text #10
  165. ID : 12
  166. Format : UTF-8
  167. Codec ID : S_TEXT/UTF8
  168. Codec ID/Info : UTF-8 Plain Text
  169. Duration : 1 h 2 min
  170. Bit rate : 60 b/s
  171. Count of elements : 900
  172. Stream size : 27.9 KiB (0%)
  173. Language : French
  174. Default : No
  175. Forced : No

  176. Text #11
  177. ID : 13
  178. Format : UTF-8
  179. Codec ID : S_TEXT/UTF8
  180. Codec ID/Info : UTF-8 Plain Text
  181. Duration : 1 h 2 min
  182. Bit rate : 61 b/s
  183. Count of elements : 708
  184. Stream size : 27.9 KiB (0%)
  185. Language : German
  186. Default : No
  187. Forced : No

  188. Text #12
  189. ID : 14
  190. Format : UTF-8
  191. Codec ID : S_TEXT/UTF8
  192. Codec ID/Info : UTF-8 Plain Text
  193. Duration : 1 h 2 min
  194. Bit rate : 93 b/s
  195. Count of elements : 903
  196. Stream size : 42.5 KiB (0%)
  197. Language : Hebrew
  198. Default : No
  199. Forced : No

  200. Text #13
  201. ID : 15
  202. Format : UTF-8
  203. Codec ID : S_TEXT/UTF8
  204. Codec ID/Info : UTF-8 Plain Text
  205. Duration : 1 h 2 min
  206. Bit rate : 155 b/s
  207. Count of elements : 903
  208. Stream size : 71.2 KiB (0%)
  209. Language : Hindi
  210. Default : No
  211. Forced : No

  212. Text #14
  213. ID : 16
  214. Format : UTF-8
  215. Codec ID : S_TEXT/UTF8
  216. Codec ID/Info : UTF-8 Plain Text
  217. Duration : 1 h 2 min
  218. Bit rate : 53 b/s
  219. Count of elements : 901
  220. Stream size : 24.3 KiB (0%)
  221. Language : Indonesian
  222. Default : No
  223. Forced : No

  224. Text #15
  225. ID : 17
  226. Format : UTF-8
  227. Codec ID : S_TEXT/UTF8
  228. Codec ID/Info : UTF-8 Plain Text
  229. Duration : 1 h 2 min
  230. Bit rate : 61 b/s
  231. Count of elements : 899
  232. Stream size : 27.9 KiB (0%)
  233. Language : Italian
  234. Default : No
  235. Forced : No

  236. Text #16
  237. ID : 18
  238. Format : UTF-8
  239. Codec ID : S_TEXT/UTF8
  240. Codec ID/Info : UTF-8 Plain Text
  241. Duration : 1 h 2 min
  242. Bit rate : 52 b/s
  243. Count of elements : 838
  244. Stream size : 24.1 KiB (0%)
  245. Language : Japanese
  246. Default : No
  247. Forced : No

  248. Text #17
  249. ID : 19
  250. Format : UTF-8
  251. Codec ID : S_TEXT/UTF8
  252. Codec ID/Info : UTF-8 Plain Text
  253. Duration : 1 h 2 min
  254. Bit rate : 65 b/s
  255. Count of elements : 902
  256. Stream size : 29.8 KiB (0%)
  257. Language : Korean
  258. Default : No
  259. Forced : No

  260. Text #18
  261. ID : 20
  262. Format : UTF-8
  263. Codec ID : S_TEXT/UTF8
  264. Codec ID/Info : UTF-8 Plain Text
  265. Duration : 1 h 2 min
  266. Bit rate : 60 b/s
  267. Count of elements : 899
  268. Stream size : 27.5 KiB (0%)
  269. Language : Malay
  270. Default : No
  271. Forced : No

  272. Text #19
  273. ID : 21
  274. Format : UTF-8
  275. Codec ID : S_TEXT/UTF8
  276. Codec ID/Info : UTF-8 Plain Text
  277. Duration : 1 h 2 min
  278. Bit rate : 59 b/s
  279. Count of elements : 899
  280. Stream size : 27.1 KiB (0%)
  281. Language : Norwegian Bokmal
  282. Default : No
  283. Forced : No

  284. Text #20
  285. ID : 22
  286. Format : UTF-8
  287. Codec ID : S_TEXT/UTF8
  288. Codec ID/Info : UTF-8 Plain Text
  289. Duration : 1 h 2 min
  290. Bit rate : 55 b/s
  291. Count of elements : 896
  292. Stream size : 25.3 KiB (0%)
  293. Language : Dutch
  294. Default : No
  295. Forced : No

  296. Text #21
  297. ID : 23
  298. Format : UTF-8
  299. Codec ID : S_TEXT/UTF8
  300. Codec ID/Info : UTF-8 Plain Text
  301. Duration : 1 h 2 min
  302. Bit rate : 58 b/s
  303. Count of elements : 895
  304. Stream size : 26.8 KiB (0%)
  305. Language : Polish
  306. Default : No
  307. Forced : No

  308. Text #22
  309. ID : 24
  310. Format : UTF-8
  311. Codec ID : S_TEXT/UTF8
  312. Codec ID/Info : UTF-8 Plain Text
  313. Duration : 1 h 2 min
  314. Bit rate : 58 b/s
  315. Count of elements : 900
  316. Stream size : 26.7 KiB (0%)
  317. Title : Brazilian
  318. Language : Portuguese
  319. Default : No
  320. Forced : No

  321. Text #23
  322. ID : 25
  323. Format : UTF-8
  324. Codec ID : S_TEXT/UTF8
  325. Codec ID/Info : UTF-8 Plain Text
  326. Duration : 1 h 2 min
  327. Bit rate : 56 b/s
  328. Count of elements : 899
  329. Stream size : 25.6 KiB (0%)
  330. Title : European
  331. Language : Portuguese
  332. Default : No
  333. Forced : No

  334. Text #24
  335. ID : 26
  336. Format : UTF-8
  337. Codec ID : S_TEXT/UTF8
  338. Codec ID/Info : UTF-8 Plain Text
  339. Duration : 1 h 2 min
  340. Bit rate : 106 b/s
  341. Count of elements : 903
  342. Stream size : 48.7 KiB (0%)
  343. Language : Russian
  344. Default : No
  345. Forced : No

  346. Text #25
  347. ID : 27
  348. Format : UTF-8
  349. Codec ID : S_TEXT/UTF8
  350. Codec ID/Info : UTF-8 Plain Text
  351. Duration : 1 h 2 min
  352. Bit rate : 60 b/s
  353. Count of elements : 902
  354. Stream size : 27.6 KiB (0%)
  355. Title : Latin American
  356. Language : Spanish
  357. Default : No
  358. Forced : No

  359. Text #26
  360. ID : 28
  361. Format : UTF-8
  362. Codec ID : S_TEXT/UTF8
  363. Codec ID/Info : UTF-8 Plain Text
  364. Duration : 1 h 2 min
  365. Bit rate : 59 b/s
  366. Count of elements : 901
  367. Stream size : 27.4 KiB (0%)
  368. Title : Castilian
  369. Language : Spanish
  370. Default : No
  371. Forced : No

  372. Text #27
  373. ID : 29
  374. Format : UTF-8
  375. Codec ID : S_TEXT/UTF8
  376. Codec ID/Info : UTF-8 Plain Text
  377. Duration : 1 h 2 min
  378. Bit rate : 59 b/s
  379. Count of elements : 899
  380. Stream size : 27.3 KiB (0%)
  381. Language : Swedish
  382. Default : No
  383. Forced : No

  384. Text #28
  385. ID : 30
  386. Format : UTF-8
  387. Codec ID : S_TEXT/UTF8
  388. Codec ID/Info : UTF-8 Plain Text
  389. Duration : 1 h 2 min
  390. Bit rate : 148 b/s
  391. Count of elements : 903
  392. Stream size : 67.9 KiB (0%)
  393. Language : Tamil
  394. Default : No
  395. Forced : No

  396. Text #29
  397. ID : 31
  398. Format : UTF-8
  399. Codec ID : S_TEXT/UTF8
  400. Codec ID/Info : UTF-8 Plain Text
  401. Duration : 1 h 2 min
  402. Bit rate : 157 b/s
  403. Count of elements : 903
  404. Stream size : 71.9 KiB (0%)
  405. Language : Telugu
  406. Default : No
  407. Forced : No

  408. Text #30
  409. ID : 32
  410. Format : UTF-8
  411. Codec ID : S_TEXT/UTF8
  412. Codec ID/Info : UTF-8 Plain Text
  413. Duration : 1 h 2 min
  414. Bit rate : 149 b/s
  415. Count of elements : 903
  416. Stream size : 68.3 KiB (0%)
  417. Language : Thai
  418. Default : No
  419. Forced : No

  420. Text #31
  421. ID : 33
  422. Format : UTF-8
  423. Codec ID : S_TEXT/UTF8
  424. Codec ID/Info : UTF-8 Plain Text
  425. Duration : 1 h 2 min
  426. Bit rate : 55 b/s
  427. Count of elements : 899
  428. Stream size : 25.2 KiB (0%)
  429. Language : Turkish
  430. Default : No
  431. Forced : No

  432. Menu
  433. 00:00:00.000 : en:Amazon Original
  434. 00:00:05.000 : en:Ratings
  435. 00:00:15.000 : en:Previously On
  436. 00:02:58.000 : en:Collateral damage negotiations
  437. 00:06:11.000 : en:A memorial service
  438. 00:09:42.000 : en:Post-funeral interview
  439. 00:11:30.000 : en:Title Sequence | Hughie in bed
  440. 00:11:37.000 : en:Getting ready
  441. 00:14:30.000 : en:Secret meetings
  442. 00:17:17.000 : en:The Deep has a meltdown
  443. 00:18:42.000 : en:Watching TV
  444. 00:19:48.000 : en:Team arguments
  445. 00:21:20.000 : en:Homelander is in power
  446. 00:27:03.000 : en:Making money
  447. 00:30:02.000 : en:A new patient
  448. 00:31:37.000 : en:Watching the tapes
  449. 00:33:43.000 : en:Focus groups
  450. 00:35:08.000 : en:A safe space
  451. 00:38:19.000 : en:What to do next
  452. 00:43:05.000 : en:Black mail
  453. 00:46:40.000 : en:New kid on the block
  454. 00:48:50.000 : en:CIA meeting
  455. 00:51:23.000 : en:Homelander confronts Stan
  456. 00:56:07.000 : en:An unexpected visit
  457. 00:56:40.000 : en:Lies and deceit
  458. 01:00:56.000 : en:End Credits
复制代码

男孩帮 / 黑衣小队 / 七痞郎 / 英雄克星/黑袍纠察队 第二季4k The.Boys.S02E01.2160p.AMZN.WEBRip.x265.10bit.HDR10Plus.DDP5.1-4k美剧下载
黑袍纠察队 第二季4k The.Boys.S02.2160p.AMZN.WEBRip.x265.10bit.HDR.DDP5.1【73.44 GB】
黑袍纠察队 第二季4k The.Boys.S02.2160p.AMZN.WEBRip.x265.10bit.HDR.DDP5.1-C4K[rar.torrent
(184.97 KB)
回复

使用道具 举报

发烧友评论30

倒序浏览
hhzfz2504 发表于 2020-9-19 01:55:50 | 显示全部楼层
第二级重了,没第五集
回复 支持 3 反对 0

使用道具 举报

mydongxin20 发表于 2020-10-22 17:29:18 | 显示全部楼层
感谢分享第二季
回复 支持 反对

使用道具 举报

hhl6642333 发表于 2020-10-14 22:00:42 | 显示全部楼层
完美收藏啊 多谢
回复 支持 反对

使用道具 举报

wzff111 发表于 2020-10-14 14:56:25 Hao4K手机版 | 显示全部楼层
看看怎么样谢谢
回复 支持 反对

使用道具 举报

simenswang 发表于 2020-10-12 19:41:18 | 显示全部楼层
有几集没HDR啊
回复 支持 反对

使用道具 举报

gmdz 发表于 2020-10-12 00:10:55 | 显示全部楼层
看了720p的。下载这个收藏得空再看。
回复 支持 反对

使用道具 举报

hao4k 发表于 2020-10-9 11:16:13 | 显示全部楼层
hhzfz2504 发表于 2020-9-19 01:55
第二级重了,没第五集

第二集未未重复,版本不一样,已联系作者更新第5集
回复 支持 反对

使用道具 举报

ctpolo777 发表于 2020-10-8 00:18:13 | 显示全部楼层
多謝樓主分享,挺好的,要頂起來
回复 支持 反对

使用道具 举报

hbht01 发表于 2020-10-6 11:34:39 | 显示全部楼层
怎么还不更新07啊
回复 支持 反对

使用道具 举报

bttuzi03 发表于 2020-10-4 16:07:07 | 显示全部楼层
第二季威武
回复 支持 反对

使用道具 举报

happyno009 发表于 2020-10-1 13:16:46 | 显示全部楼层
第二季终于来了,非常感谢
回复 支持 反对

使用道具 举报

ronini 发表于 2020-9-26 19:11:49 | 显示全部楼层

多谢楼主分享
回复 支持 反对

使用道具 举报

花卷弟 发表于 2020-9-22 08:24:45 | 显示全部楼层
多谢老板分享。感谢
回复 支持 反对

使用道具 举报

slimboy 发表于 2020-9-21 08:55:41 | 显示全部楼层
感谢分享,等季终了再刷
回复 支持 反对

使用道具 举报

您需要登录后才可以回帖 登录 | 立即注册

本版积分规则

在线客服

在线客服

服务时间 9:00—18:00

返回顶部

关注微信公众号第一时间推送精彩

官方微信

手机访问

Hao4K影音

专注4k家庭影音,提供家庭影音社区,家庭影音器材库,影音问答平台,影音商城,服务千万家庭影音用户。

本站内容部分由用户自主分享和转载自互联网,转载目的在于传递更多信息,并不代表本网赞同其观点和对其真实性负责。

如有侵权、违反国家法律政策行为,请联系我们,我们会第一时间及时清除和处理!

举报反馈邮箱:admin@hao4k.cn

Copyright  2019-2020  Hao4K影音粤公网安备 44030302001429号    ( 粤ICP备18155646号-1 )|网站地图