专注4K家庭影音, 服务千万家庭影音发烧友!

[待验证4K资源] 深海异兽4k Underwater 2020 2160p电影下载

碧池 发表于 3 天前 | 显示全部楼层
电影频道
电影封面:
片  名: 深海异兽4k
电影分类: 动作 科幻 恐怖 惊悚 
国  家: 美国 
年  代: 2020年
分 辨 率: 4K(3840x2160)
电影格式: MKV|REMUX 
画质标准: HDR 
音质编码: Dolby Digital Audio 
电影声道: 5.1声道 
帧数/FPS: 23.976 FPS
电影语言: 英文原版 
资源大小: 2.4 GB
导  演: 威廉·尤班克
豆瓣评分: 5.9 分
中文字幕: /thread-49836-1-1.html
剧情简介: 一场惊天动地的大地震,让设在海平面下的实验室危在旦夕!
  一场毁灭性的地震,让6名驻扎于海底的研究人员受困于即将被淹没的研究设施,唯一的生存之路竟然只剩下徒步经由海底平面走到遥远的废弃钻井台。
  在这充满挑战的旅途中,他们很快就意识到,除了得依靠简陋装备克服缺氧危机,某种前所未见、致命的海底掠食者已被唤醒,并将他们当作猎物般的追击扑杀…
深海终劫站(台) / 水下/深海异兽4k Underwater 2020 2160p HDR 5.1 x265 10bit Phun Psyz 电影信息
  1. Video
  2. ID : 1
  3. Format : HEVC
  4. Format/Info : High Efficiency Video Coding
  5. Codec ID : V_MPEGH/ISO/HEVC
  6. Duration : 1 h 34 min
  7. Bit rate : 3 228 kb/s
  8. Width : 3 840 pixels
  9. Height : 1 600 pixels
  10. Display aspect ratio : 2.40:1
  11. Frame rate mode : Constant
  12. Frame rate : 23.976 (24000/1001) FPS
  13. Color space : YUV
  14. Chroma subsampling : 4:2:0
  15. Bit depth : 10 bits
  16. Bits/(Pixel*Frame) : 0.022
  17. Stream size : 2.14 GiB (89%)
  18. Writing library : x265 2.9:[Windows][GCC 7.1.0][64 bit] 10bit
  19. Color range : Limited
  20. Color primaries : BT.2020
  21. Transfer characteristics : PQ
  22. Matrix coefficients : BT.2020 non-constant

  23. Audio
  24. ID : 2
  25. Format : AC-3
  26. Format/Info : Audio Coding 3
  27. Commercial name : Dolby Digital
  28. Codec ID : A_AC3
  29. Duration : 1 h 34 min
  30. Bit rate mode : Constant
  31. Bit rate : 320 kb/s
  32. Channel(s) : 6 channels
  33. Channel layout : L R C LFE Ls Rs
  34. Sampling rate : 48.0 kHz
  35. Frame rate : 31.250 FPS (1536 SPF)
  36. Bit depth : 16 bits
  37. Compression mode : Lossy
  38. Delay relative to video : -1 ms
  39. Stream size : 217 MiB (9%)
  40. Title : Surround
  41. Language : English

  42. Text
  43. Language : English
  44. Language : Spanish
  45. Language : Portuguese
  46. Language : Bulgarian
  47. Language : Chinese
  48. Language : Czech
  49. Language : Greek
  50. Language : Hindi
  51. Language : Hungarian
  52. Language : Korean
  53. Language : Chinese
  54. Language : Polish
  55. Language : Portuguese
  56. Language : Serbian
  57. Language : Slovak
  58. Language : Slovenian
  59. Language : Korean
  60. Default : No
  61. Forced : No
复制代码
深海终劫站(台) / 水下/深海异兽4k Underwater 2020 2160p HDR 5.1 x265 10bit Phun Psyz 电影下载
深海异兽4k Underwater 2020 2160p HDR 5.1 x265 10bit Phun Psyz【2.4 GB】
深海异兽4k.txt
(100 Bytes)
回复

使用道具 举报

发烧友评论4

倒序浏览
2426433688wu 发表于 前天 22:04 | 显示全部楼层
怎么下载呀
回复 支持 反对

使用道具 举报

KingsMan_0083 发表于 前天 15:48 | 显示全部楼层
这电影看着还算是不错的。尤其后面那个异兽,好大呀。
回复 支持 反对

使用道具 举报

huanghuang123 发表于 前天 13:41 | 显示全部楼层
没下载链接呀
回复 支持 反对

使用道具 举报

stanger 发表于 3 天前 | 显示全部楼层
好东西啊谢谢楼主
回复 支持 反对

使用道具 举报

您需要登录后才可以回帖 登录 | 立即注册

本版积分规则


0关注

11粉丝

56帖子

热门图文主题
热门主题
社区广告

在线客服

在线客服

服务时间 9:00—18:00

返回顶部

关注微信公众号第一时间推送精彩

官方微信

手机访问

Hao4K影音

专注4k家庭影音,提供家庭影音社区,家庭影音器材库,影音问答平台,影音商城,服务千万家庭影音用户。

本站内容部分由用户自主分享和转载自互联网,转载目的在于传递更多信息,并不代表本网赞同其观点和对其真实性负责。

如有侵权、违反国家法律政策行为,请联系我们,我们会第一时间及时清除和处理!

举报反馈邮箱:admin@hao4k.cn

Copyright  2019-2020  Hao4K影音粤公网安备 44030302001429号    ( 粤ICP备18155646号-1 )|网站地图