专注4K家庭影音, 服务千万家庭影音发烧友!

风味人间 第一季(1-8全集)4k Once Upon a Bite S01 2018 WEB-DL 2160p H265 AAC-4k纪录片下载

 
青衫烟雨 发表于 2020-9-18 23:10:40 | 显示全部楼层
电影频道
电影封面:
片  名: 风味人间 第一季4k
电影分类: 纪录片 
国  家: 中国大陆 
年  代: 2018年
分 辨 率: 4K(3840x2160)
电影格式: MKV|REMUX 
画质标准: 其他 
音质编码: 其他AAC 
电影声道: 其他 
帧数/FPS: 25.000 FPS
电影语言: 中文繁体 
资源大小: 14.89 GB
导  演: 陈晓卿
豆瓣评分: 9.1 分
中文字幕: -
剧情简介: 在全球视野里审视中国美食的独特性,在历史演化过程中探究中国美食的流变,深度讨论中国人与食物的关系。这种立足于全球的视角,成就了一个多元的“美食探索纪录片”。
Once Upon a Bite / Savouring China/风味人间 第一季全集4k Once Upon a Bite S01 2018 WEB-DL 2160p H265 AAC-4k纪录片信息
  1. General
  2. Complete name                  : Once.Upon.a.Bite.S01.E01.2018.WEB-DL.2160p.H265.AAC-Hao4kweb.mp4
  3. Format                         : MPEG-4
  4. Format profile                 : Base Media
  5. Codec ID                       : isom (isom/iso2/mp41)
  6. File size                      : 1.94 GiB
  7. Duration                       : 50 min 25 s
  8. Overall bit rate               : 5 512 kb/s
  9. Recorded date                  : 2020-06-14T22:37:06.6916858+08:00
  10. Writing application            : Lavf58.32.104
  11. Video
  12. ID                             : 1
  13. Format                         : HEVC
  14. Format/Info                    : High Efficiency Video Coding
  15. Format profile                 : Main@L5@Main
  16. Codec ID                       : hev1
  17. Codec ID/Info                  : High Efficiency Video Coding
  18. Duration                       : 50 min 25 s
  19. Bit rate                       : 5 378 kb/s
  20. Width                          : 3 840 pixels
  21. Height                         : 2 160 pixels
  22. Display aspect ratio           : 16:9
  23. Frame rate mode                : Variable
  24. Frame rate                     : 25.000 FPS
  25. Minimum frame rate             : 24.993 FPS
  26. Maximum frame rate             : 25.007 FPS
  27. Color space                    : YUV
  28. Chroma subsampling             : 4:2:0
  29. Bit depth                      : 8 bits
  30. Bits/(Pixel*Frame)             : 0.026
  31. Stream size                    : 1.89 GiB (98%)
  32. Codec configuration box        : hvcC
  33. Audio
  34. ID                             : 2
  35. Format                         : AAC LC
  36. Format/Info                    : Advanced Audio Codec Low Complexity
  37. Codec ID                       : mp4a-40-2
  38. Duration                       : 50 min 25 s
  39. Bit rate mode                  : Constant
  40. Bit rate                       : 128 kb/s
  41. Channel(s)                     : 2 channels
  42. Channel layout                 : L R
  43. Sampling rate                  : 48.0 kHz
  44. Frame rate                     : 46.875 FPS (1024 SPF)
  45. Compression mode               : Lossy
  46. Stream size                    : 46.2 MiB (2%)
  47. Default                        : Yes
  48. Alternate group                : 1
复制代码

Once Upon a Bite / Savouring China/风味人间 第一季全集4k Once Upon a Bite S01 2018 WEB-DL 2160p H265 AAC-4k纪录片下载

风味人间 第一季全集4k Once Upon a Bite S01 2018 WEB-DL 2160p H265 AAC【14.89 GB】
Once.Upon.a.Bite.1.2020.WEB-DL.4K.H265.AAC-HAO4KWEB.torrent
(40.62 KB, 售价: 8 K币)
回复

使用道具 举报

发烧友评论191

倒序浏览
风雨无阻-77 发表于 8 小时前 | 显示全部楼层
舌尖上的中国带火了吃客的胃,各种美食纪录片都冒出来了。
回复 支持 反对

使用道具 举报

休斯顿孙一峰 发表于 昨天 23:24 | 显示全部楼层
一直想看这个美食系列的4k,感谢感谢
回复 支持 反对

使用道具 举报

anjizjf 发表于 昨天 21:14 | 显示全部楼层
感谢楼主分享 !舌尖上的美食 。
回复 支持 反对

使用道具 举报

litianchen 发表于 昨天 11:27 | 显示全部楼层
谢谢分享,美食大餐!
回复 支持 反对

使用道具 举报

pkoliver2002 发表于 昨天 09:56 | 显示全部楼层
目前全网唯一的4K版本,谢谢啦
回复 支持 反对

使用道具 举报

tblaw 发表于 前天 12:45 | 显示全部楼层
感谢楼主分享。
回复 支持 反对

使用道具 举报

xuning509 发表于 前天 08:59 | 显示全部楼层
看越谢谢分享 晚上看 减肥呢
回复 支持 反对

使用道具 举报

szczh2000 发表于 3 天前 | 显示全部楼层
风味人间 第一季(1-8全集)4k Once Upon a Bite S01 2018 WEB-DL 2160p H265 AAC-4k纪录片
回复 支持 反对

使用道具 举报

czh820106 发表于 4 天前 | 显示全部楼层
风味人间 第一季(1-8全集)4k Once Upon a Bite S01 2018 WEB-DL 2160p H265 AAC-4k纪录片 感谢楼'xi
回复 支持 反对

使用道具 举报

czh820106 发表于 4 天前 | 显示全部楼层
风味人间 第一季(1-8全集)4k Once Upon a Bite S01 2018 WEB-DL 2160p H265 AAC-4k纪录片
回复 支持 反对

使用道具 举报

qaz5858188 发表于 4 天前 | 显示全部楼层
看起来比现在的舌尖舒服
回复 支持 反对

使用道具 举报

Shu_Nice 发表于 5 天前 | 显示全部楼层
谢谢分享,美食大餐!
回复 支持 反对

使用道具 举报

jy201512 发表于 6 天前 | 显示全部楼层
美食资源感谢分享
回复 支持 反对

使用道具 举报

ywzhush 发表于 2020-10-23 12:35:27 | 显示全部楼层
这个不错,值得收藏
回复 支持 反对

使用道具 举报

您需要登录后才可以回帖 登录 | 立即注册

本版积分规则

在线客服

在线客服

服务时间 9:00—18:00

返回顶部

关注微信公众号第一时间推送精彩

官方微信

手机访问

Hao4K影音

专注4k家庭影音,提供家庭影音社区,家庭影音器材库,影音问答平台,影音商城,服务千万家庭影音用户。

本站内容部分由用户自主分享和转载自互联网,转载目的在于传递更多信息,并不代表本网赞同其观点和对其真实性负责。

如有侵权、违反国家法律政策行为,请联系我们,我们会第一时间及时清除和处理!

举报反馈邮箱:admin@hao4k.cn

Copyright  2019-2020  Hao4K影音粤公网安备 44030302001429号    ( 粤ICP备18155646号-1 )|网站地图