专注4K家庭影音, 服务千万家庭影音发烧友!

[美剧] 正常人4k Normal People 2020 Season 01 S01 2160p-4k美剧下载

碧池 发表于 2020-9-20 11:45:33 | 显示全部楼层
电视剧频道
电视剧封面:
电视剧名: 正常人4k
年  代: 2020  
国  家: 美国
类  别: 剧情 爱情 
语  言: 英语
字  幕: 英文原版
上映日期: 2020-04-29
文件格式: mkv    
视频效果: 4K(3840x2160)    
资源大小: 10.02 GB
片  长: 30 分钟
导  演: 伦尼·阿伯拉罕森 / 希提·麦克唐纳
剧情简介: 故事围绕着主人公玛丽安娜与康奈尔在爱尔兰西部小镇最后的学校时光,到两人前往圣三一学院读书的复杂生活展开。黛西·埃德加-琼斯饰演孤独、易受惊吓的玛丽安娜,新人保罗·梅斯卡尔饰演外向、受欢迎的康纳尔。
普通人类(台) / 普通人 / 常人/正常人4k Normal People S01E01 Episode 1 2160p x265 10bit -4k美剧信息
  1. Video
  2. ID : 1
  3. Format : HEVC
  4. Format/Info : High Efficiency Video Coding
  5. Codec ID : V_MPEGH/ISO/HEVC
  6. Duration : 30 min 5 s
  7. Bit rate : 4 001 kb/s
  8. Width : 3 840 pixels
  9. Height : 2 160 pixels
  10. Display aspect ratio : 16:9
  11. Frame rate mode : Constant
  12. Frame rate : 25.000 FPS
  13. Color space : YUV
  14. Chroma subsampling : 4:2:0
  15. Bit depth : 10 bits
  16. Bits/(Pixel*Frame) : 0.019
  17. Stream size : 861 MiB (94%)
  18. Writing library : x265 3.2+9-971180b100f8:[Windows][GCC 9.2.0][64 bit] 10bit
  19. Encoding settings : cpuid=1111039 / frame-threads=4 / numa-pools=16 / wpp / no-pmode / no-pme / no-psnr / ssim / log-level=2 / input-csp=1 / input-res=3840x2160 / interlace=0 / total-frames=45136 / level-idc=0 / high-tier=1 / uhd-bd=0 / ref=3 / no-allow-non-conformance / no-repeat-headers / annexb / no-aud / no-hrd / info / hash=0 / no-temporal-layers / open-gop / min-keyint=25 / keyint=250 / gop-lookahead=0 / bframes=8 / b-adapt=2 / b-pyramid / bframe-bias=40 / rc-lookahead=80 / lookahead-slices=8 / scenecut=40 / radl=0 / no-splice / no-intra-refresh / ctu=64 / min-cu-size=8 / no-rect / no-amp / max-tu-size=32 / tu-inter-depth=1 / tu-intra-depth=1 / limit-tu=0 / rdoq-level=2 / dynamic-rd=0.00 / ssim-rd / signhide / no-tskip / nr-intra=0 / nr-inter=0 / constrained-intra / strong-intra-smoothing / max-merge=3 / limit-refs=1 / no-limit-modes / me=3 / subme=5 / merange=57 / temporal-mvp / no-frame-dup / no-hme / weightp / no-weightb / no-analyze-src-pics / deblock=0:0 / no-sao / no-sao-non-deblock / rd=3 / selective-sao=0 / early-skip / rskip / no-fast-intra / no-tskip-fast / no-cu-lossless / b-intra / splitrd-skip / rdpenalty=0 / psy-rd=0.00 / psy-rdoq=0.00 / no-rd-refine / no-lossless / cbqpoffs=0 / crqpoffs=0 / rc=abr / bitrate=4000 / qcomp=0.60 / qpstep=4 / stats-write=0 / stats-read=2 / cplxblur=20.0 / qblur=0.5 / ipratio=1.40 / pbratio=1.30 / aq-mode=3 / aq-strength=0.30 / cutree / zone-count=0 / no-strict-cbr / qg-size=32 / no-rc-grain / qpmax=69 / qpmin=0 / no-const-vbv / sar=0 / overscan=0 / videoformat=5 / range=0 / colorprim=1 / transfer=1 / colormatrix=1 / chromaloc=0 / display-window=0 / cll=0,0 / min-luma=0 / max-luma=1023 / log2-max-poc-lsb=8 / vui-timing-info / vui-hrd-info / slices=1 / no-opt-qp-pps / no-opt-ref-list-length-pps / multi-pass-opt-rps / scenecut-bias=0.05 / no-opt-cu-delta-qp / no-aq-motion / no-hdr / no-hdr-opt / no-dhdr10-opt / no-idr-recovery-sei / analysis-load / analysis-reuse-level=10 / scale-factor=0 / refine-intra=0 / refine-inter=0 / refine-mv=1 / refine-ctu-distortion=0 / no-limit-sao / ctu-info=0 / no-lowpass-dct / refine-analysis-type=0 / copy-pic=1 / max-ausize-factor=1.0 / no-dynamic-refine / no-single-sei / no-hevc-aq / no-svt / no-field / qp-adaptation-range=1.00
  20. Default : Yes
  21. Forced : No
  22. Color range : Limited
  23. Color primaries : BT.709
  24. Transfer characteristics : BT.709
  25. Matrix coefficients : BT.709

  26. Audio
  27. ID : 2
  28. Format : AAC
  29. Format/Info : Advanced Audio Codec
  30. Format profile : LC
  31. Codec ID : A_AAC
  32. Duration : 30 min 5 s
  33. Bit rate : 255 kb/s
  34. Channel(s) : 6 channels
  35. Channel positions : Front: L C R, Side: L R, LFE
  36. Sampling rate : 48.0 kHz
  37. Frame rate : 46.875 FPS (1024 spf)
  38. Compression mode : Lossy
  39. Delay relative to video : 9 ms
  40. Stream size : 54.8 MiB (6%)
  41. Language : English
  42. Default : No
  43. Forced : No

  44. Subtitle #1
  45. ID : 3
  46. Format : UTF-8
  47. Codec ID : S_TEXT/UTF8
  48. Codec ID/Info : UTF-8 Plain Text
  49. Duration : 29 min 49 s
  50. Bit rate : 63 b/s
  51. Count of elements : 442
  52. Stream size : 13.9 KiB (0%)
  53. Language : English
  54. Default : No
  55. Forced : No

  56. Subtitle #2
  57. ID : 4
  58. Format : UTF-8
  59. Codec ID : S_TEXT/UTF8
  60. Codec ID/Info : UTF-8 Plain Text
  61. Duration : 30 min 2 s
  62. Bit rate : 66 b/s
  63. Count of elements : 465
  64. Stream size : 14.6 KiB (0%)
  65. Language : Spanish
  66. Default : No
  67. Forced : No
复制代码

普通人类(台) / 普通人 / 常人/正常人4k Normal People S01E01 Episode 1 2160p x265 10bit -4k美剧下载

正常人4k Normal People S01E01 Episode 1 2160p x265 10bit【10.2 GB】
正常人4k下载.txt
(106 Bytes)
回复

使用道具 举报

发烧友评论3

倒序浏览
Hao4k网友  发表于 2020-10-4 21:24:56
局限于你一生一世一双包邮是不是不
回复 支持 反对

使用道具

爱琪琪昕言 发表于 2020-9-26 00:16:12 | 显示全部楼层
前面还可以,后面一般般
回复 支持 反对

使用道具 举报

您需要登录后才可以回帖 登录 | 立即注册

本版积分规则

在线客服

在线客服

服务时间 9:00—18:00

返回顶部

关注微信公众号第一时间推送精彩

官方微信

手机访问

Hao4K影音

专注4k家庭影音,提供家庭影音社区,家庭影音器材库,影音问答平台,影音商城,服务千万家庭影音用户。

本站内容部分由用户自主分享和转载自互联网,转载目的在于传递更多信息,并不代表本网赞同其观点和对其真实性负责。

如有侵权、违反国家法律政策行为,请联系我们,我们会第一时间及时清除和处理!

举报反馈邮箱:admin@hao4k.cn

Copyright  2019-2020  Hao4K影音粤公网安备 44030302001429号    ( 粤ICP备18155646号-1 )|网站地图