专注4K家庭影音, 服务千万家庭影音发烧友!

[美剧] 拉契特 第一季4k Ratched.S01.2160p.NF.WEB.DDP5.1.Atmos.x265-4k美剧下载

大红色 发表于 2020-9-21 17:32:21 | 显示全部楼层
电视剧频道
电视剧封面:
电视剧名: 拉契特 第一季4k
年  代: 2020  
国  家: 美国
类  别: 犯罪 惊悚 悬疑 
语  言: 英语
字  幕: 英文原版
上映日期: 2020-09-18
文件格式: mkv    
视频效果: 4K(3840x2160)    
资源大小: 91.79 GB
片  长: 45 分钟
导  演: 瑞恩·墨菲
剧情简介: 讲述了精神病院护士米尔德里德·拉契特的背景故事。1947 年,米尔德里德就职于北加州一所顶尖的精神病院。那里开始了令人不安的人类大脑新实验。在一项秘密任务中,米尔德里德为自己塑造了一个完美的护士形象,随着时间推移,她逐渐打入了精神保健系统内部。米尔德里德时髦的外表下隐藏着潜伏已久的黑暗,这种黑暗在她的内心日益滋长,表明了真正的怪物是后天制造的,而不是与生俱来的。
拉契特前传 / 毒妇拉契特 / 拉契特:黯衣天使 / 拉切德 / 黯衣天使(港)/拉契特 第一季4k Ratched.S01.2160p.NF.WEB.DDP5.1.Atmos.x265-4k美剧信息
  1. Video
  2. ID : 1
  3. Format : HEVC
  4. Format/Info : High Efficiency Video Coding
  5. Format profile : Main 10@L5.1@High
  6. Codec ID : V_MPEGH/ISO/HEVC
  7. Duration : 1 h 1 min
  8. Bit rate : 33.1 Mb/s
  9. Width : 3 840 pixels
  10. Height : 1 744 pixels
  11. Display aspect ratio : 2.2:1
  12. Frame rate mode : Constant
  13. Frame rate : 23.976 (24000/1001) FPS
  14. Color space : YUV
  15. Chroma subsampling : 4:2:0
  16. Bit depth : 10 bits
  17. Bits/(Pixel*Frame) : 0.206
  18. Stream size : 14.1 GiB (98%)
  19. Writing library : x265 3.0_Au+4-dcbec33bfb0f:[Windows][GCC 8.2.1][64 bit] 10bit
  20. Encoding settings : cpuid=1111039 / frame-threads=4 / numa-pools=28 / wpp / no-pmode / no-pme / no-psnr / no-ssim / log-level=2 / input-csp=1 / input-res=3840x1744 / interlace=0 / total-frames=87936 / level-idc=51 / high-tier=1 / uhd-bd=0 / ref=5 / no-allow-non-conformance / repeat-headers / annexb / aud / hrd / info / hash=0 / no-temporal-layers / open-gop / min-keyint=23 / keyint=250 / gop-lookahead=0 / bframes=8 / b-adapt=2 / b-pyramid / bframe-bias=0 / rc-lookahead=40 / lookahead-slices=8 / scenecut=40 / radl=0 / no-splice / no-intra-refresh / ctu=64 / min-cu-size=8 / no-rect / no-amp / max-tu-size=32 / tu-inter-depth=4 / tu-intra-depth=4 / limit-tu=4 / rdoq-level=0 / dynamic-rd=0.00 / no-ssim-rd / signhide / no-tskip / nr-intra=0 / nr-inter=0 / no-constrained-intra / strong-intra-smoothing / max-merge=4 / limit-refs=3 / no-limit-modes / me=1 / subme=5 / merange=57 / temporal-mvp / weightp / weightb / no-analyze-src-pics / deblock=-3:-3 / no-sao / no-sao-non-deblock / rd=4 / no-early-skip / rskip / no-fast-intra / no-tskip-fast / no-cu-lossless / b-intra / no-splitrd-skip / rdpenalty=0 / psy-rd=2.00 / psy-rdoq=0.00 / no-rd-refine / no-lossless / cbqpoffs=0 / crqpoffs=0 / rc=crf / crf=19.0 / qcomp=0.60 / qpstep=4 / stats-write=0 / stats-read=0 / vbv-maxrate=160000 / vbv-bufsize=160000 / vbv-init=0.9 / crf-max=0.0 / crf-min=0.0 / ipratio=1.30 / pbratio=1.20 / aq-mode=1 / aq-strength=0.85 / no-cutree / zone-count=0 / no-strict-cbr / qg-size=32 / no-rc-grain / qpmax=69 / qpmin=0 / no-const-vbv / sar=1 / overscan=0 / videoformat=5 / range=0 / colorprim=1 / transfer=1 / colormatrix=1 / chromaloc=0 / display-window=0 / max-cll=0,0 / min-luma=0 / max-luma=1023 / log2-max-poc-lsb=8 / vui-timing-info / vui-hrd-info / slices=1 / no-opt-qp-pps / no-opt-ref-list-length-pps / no-multi-pass-opt-rps / scenecut-bias=0.05 / no-opt-cu-delta-qp / no-aq-motion / no-hdr / no-hdr-opt / no-dhdr10-opt / no-idr-recovery-sei / analysis-reuse-level=5 / scale-factor=0 / refine-intra=0 / refine-inter=0 / refine-mv=0 / refine-ctu-distortion=0 / no-limit-sao / ctu-info=0 / no-lowpass-dct / refine-analysis-type=0 / copy-pic=1 / max-ausize-factor=1.0 / no-dynamic-refine / no-single-sei / no-hevc-aq / qp-adaptation-range=1.00
  21. Default : Yes
  22. Forced : No
  23. Color range : Limited
  24. Color primaries : BT.709
  25. Transfer characteristics : BT.709
  26. Matrix coefficients : BT.709

  27. Audio
  28. ID : 2
  29. Format : E-AC-3 JOC
  30. Format/Info : Enhanced AC-3 with Joint Object Coding
  31. Commercial name : Dolby Digital Plus with Dolby Atmos
  32. Codec ID : A_EAC3
  33. Duration : 1 h 1 min
  34. Bit rate mode : Constant
  35. Bit rate : 768 kb/s
  36. Channel(s) : 6 channels
  37. Channel layout : L R C LFE Ls Rs
  38. Sampling rate : 48.0 kHz
  39. Frame rate : 31.250 FPS (1536 SPF)
  40. Compression mode : Lossy
  41. Stream size : 336 MiB (2%)
  42. Title : English
  43. Language : English
  44. Service kind : Complete Main
  45. Default : Yes
  46. Forced : No
  47. Complexity index : 16
  48. Number of dynamic objects : 15
  49. Bed channel count : 1 channel
  50. Bed channel configuration : LFE

  51. Text #1
  52. ID : 3
  53. Format : UTF-8
  54. Codec ID : S_TEXT/UTF8
  55. Codec ID/Info : UTF-8 Plain Text
  56. Duration : 59 min 38 s
  57. Bit rate : 63 b/s
  58. Count of elements : 935
  59. Stream size : 27.6 KiB (0%)
  60. Title : SDH
  61. Language : English
  62. Default : No
  63. Forced : No

  64. Text #2
  65. ID : 4
  66. Format : UTF-8
  67. Codec ID : S_TEXT/UTF8
  68. Codec ID/Info : UTF-8 Plain Text
  69. Duration : 1 h 0 min
  70. Bit rate : 92 b/s
  71. Count of elements : 832
  72. Stream size : 41.1 KiB (0%)
  73. Language : Arabic
  74. Default : No
  75. Forced : No

  76. Text #3
  77. ID : 5
  78. Format : UTF-8
  79. Codec ID : S_TEXT/UTF8
  80. Codec ID/Info : UTF-8 Plain Text
  81. Duration : 1 h 0 min
  82. Bit rate : 51 b/s
  83. Count of elements : 798
  84. Stream size : 22.9 KiB (0%)
  85. Language : Czech
  86. Default : No
  87. Forced : No

  88. Text #4
  89. ID : 6
  90. Format : UTF-8
  91. Codec ID : S_TEXT/UTF8
  92. Codec ID/Info : UTF-8 Plain Text
  93. Duration : 1 h 0 min
  94. Bit rate : 51 b/s
  95. Count of elements : 752
  96. Stream size : 23.0 KiB (0%)
  97. Language : Danish
  98. Default : No
  99. Forced : No

  100. Text #5
  101. ID : 7
  102. Format : UTF-8
  103. Codec ID : S_TEXT/UTF8
  104. Codec ID/Info : UTF-8 Plain Text
  105. Duration : 1 h 0 min
  106. Bit rate : 55 b/s
  107. Count of elements : 779
  108. Stream size : 24.9 KiB (0%)
  109. Language : German
  110. Default : No
  111. Forced : No

  112. Text #6
  113. ID : 8
  114. Format : UTF-8
  115. Codec ID : S_TEXT/UTF8
  116. Codec ID/Info : UTF-8 Plain Text
  117. Duration : 1 h 0 min
  118. Bit rate : 89 b/s
  119. Count of elements : 802
  120. Stream size : 39.9 KiB (0%)
  121. Language : Greek
  122. Default : No
  123. Forced : No

  124. Text #7
  125. ID : 9
  126. Format : UTF-8
  127. Codec ID : S_TEXT/UTF8
  128. Codec ID/Info : UTF-8 Plain Text
  129. Duration : 1 h 0 min
  130. Bit rate : 52 b/s
  131. Count of elements : 810
  132. Stream size : 23.4 KiB (0%)
  133. Language : Spanish
  134. Default : No
  135. Forced : No

  136. Text #8
  137. ID : 10
  138. Format : UTF-8
  139. Codec ID : S_TEXT/UTF8
  140. Codec ID/Info : UTF-8 Plain Text
  141. Duration : 1 h 0 min
  142. Bit rate : 51 b/s
  143. Count of elements : 789
  144. Stream size : 22.8 KiB (0%)
  145. Title : European
  146. Language : Spanish
  147. Default : No
  148. Forced : No

  149. Text #9
  150. ID : 11
  151. Format : UTF-8
  152. Codec ID : S_TEXT/UTF8
  153. Codec ID/Info : UTF-8 Plain Text
  154. Duration : 1 h 0 min
  155. Bit rate : 52 b/s
  156. Count of elements : 673
  157. Stream size : 23.5 KiB (0%)
  158. Language : Finnish
  159. Default : No
  160. Forced : No

  161. Text #10
  162. ID : 12
  163. Format : UTF-8
  164. Codec ID : S_TEXT/UTF8
  165. Codec ID/Info : UTF-8 Plain Text
  166. Duration : 1 h 0 min
  167. Bit rate : 53 b/s
  168. Count of elements : 790
  169. Stream size : 23.6 KiB (0%)
  170. Language : French
  171. Default : No
  172. Forced : No

  173. Text #11
  174. ID : 13
  175. Format : UTF-8
  176. Codec ID : S_TEXT/UTF8
  177. Codec ID/Info : UTF-8 Plain Text
  178. Duration : 1 h 0 min
  179. Bit rate : 84 b/s
  180. Count of elements : 841
  181. Stream size : 37.2 KiB (0%)
  182. Language : Hebrew
  183. Default : No
  184. Forced : No

  185. Text #12
  186. ID : 14
  187. Format : UTF-8
  188. Codec ID : S_TEXT/UTF8
  189. Codec ID/Info : UTF-8 Plain Text
  190. Duration : 1 h 0 min
  191. Bit rate : 48 b/s
  192. Count of elements : 818
  193. Stream size : 21.7 KiB (0%)
  194. Language : Croatian
  195. Default : No
  196. Forced : No

  197. Text #13
  198. ID : 15
  199. Format : UTF-8
  200. Codec ID : S_TEXT/UTF8
  201. Codec ID/Info : UTF-8 Plain Text
  202. Duration : 1 h 0 min
  203. Bit rate : 53 b/s
  204. Count of elements : 827
  205. Stream size : 23.7 KiB (0%)
  206. Language : Hungarian
  207. Default : No
  208. Forced : No

  209. Text #14
  210. ID : 16
  211. Format : UTF-8
  212. Codec ID : S_TEXT/UTF8
  213. Codec ID/Info : UTF-8 Plain Text
  214. Duration : 1 h 0 min
  215. Bit rate : 54 b/s
  216. Count of elements : 823
  217. Stream size : 24.2 KiB (0%)
  218. Language : Indonesian
  219. Default : No
  220. Forced : No

  221. Text #15
  222. ID : 17
  223. Format : UTF-8
  224. Codec ID : S_TEXT/UTF8
  225. Codec ID/Info : UTF-8 Plain Text
  226. Duration : 1 h 0 min
  227. Bit rate : 50 b/s
  228. Count of elements : 822
  229. Stream size : 22.6 KiB (0%)
  230. Language : Italian
  231. Default : No
  232. Forced : No

  233. Text #16
  234. ID : 18
  235. Format : UTF-8
  236. Codec ID : S_TEXT/UTF8
  237. Codec ID/Info : UTF-8 Plain Text
  238. Duration : 1 h 0 min
  239. Bit rate : 48 b/s
  240. Count of elements : 846
  241. Stream size : 21.7 KiB (0%)
  242. Language : Japanese
  243. Default : No
  244. Forced : No

  245. Text #17
  246. ID : 19
  247. Format : UTF-8
  248. Codec ID : S_TEXT/UTF8
  249. Codec ID/Info : UTF-8 Plain Text
  250. Duration : 1 h 0 min
  251. Bit rate : 67 b/s
  252. Count of elements : 833
  253. Stream size : 30.3 KiB (0%)
  254. Language : Korean
  255. Default : No
  256. Forced : No

  257. Text #18
  258. ID : 20
  259. Format : UTF-8
  260. Codec ID : S_TEXT/UTF8
  261. Codec ID/Info : UTF-8 Plain Text
  262. Duration : 1 h 0 min
  263. Bit rate : 48 b/s
  264. Count of elements : 752
  265. Stream size : 21.7 KiB (0%)
  266. Language : Norwegian Bokmal
  267. Default : No
  268. Forced : No

  269. Text #19
  270. ID : 21
  271. Format : UTF-8
  272. Codec ID : S_TEXT/UTF8
  273. Codec ID/Info : UTF-8 Plain Text
  274. Duration : 1 h 0 min
  275. Bit rate : 53 b/s
  276. Count of elements : 742
  277. Stream size : 23.9 KiB (0%)
  278. Language : Dutch
  279. Default : No
  280. Forced : No

  281. Text #20
  282. ID : 22
  283. Format : UTF-8
  284. Codec ID : S_TEXT/UTF8
  285. Codec ID/Info : UTF-8 Plain Text
  286. Duration : 1 h 0 min
  287. Bit rate : 50 b/s
  288. Count of elements : 780
  289. Stream size : 22.7 KiB (0%)
  290. Language : Polish
  291. Default : No
  292. Forced : No

  293. Text #21
  294. ID : 23
  295. Format : UTF-8
  296. Codec ID : S_TEXT/UTF8
  297. Codec ID/Info : UTF-8 Plain Text
  298. Duration : 1 h 0 min
  299. Bit rate : 55 b/s
  300. Count of elements : 827
  301. Stream size : 24.7 KiB (0%)
  302. Language : Portuguese
  303. Default : No
  304. Forced : No

  305. Text #22
  306. ID : 24
  307. Format : UTF-8
  308. Codec ID : S_TEXT/UTF8
  309. Codec ID/Info : UTF-8 Plain Text
  310. Duration : 1 h 0 min
  311. Bit rate : 54 b/s
  312. Count of elements : 812
  313. Stream size : 24.1 KiB (0%)
  314. Title : Brazilian
  315. Language : Portuguese
  316. Default : No
  317. Forced : No

  318. Text #23
  319. ID : 25
  320. Format : UTF-8
  321. Codec ID : S_TEXT/UTF8
  322. Codec ID/Info : UTF-8 Plain Text
  323. Duration : 1 h 0 min
  324. Bit rate : 56 b/s
  325. Count of elements : 729
  326. Stream size : 25.3 KiB (0%)
  327. Language : Romanian
  328. Default : No
  329. Forced : No

  330. Text #24
  331. ID : 26
  332. Format : UTF-8
  333. Codec ID : S_TEXT/UTF8
  334. Codec ID/Info : UTF-8 Plain Text
  335. Duration : 1 h 0 min
  336. Bit rate : 93 b/s
  337. Count of elements : 709
  338. Stream size : 41.4 KiB (0%)
  339. Language : Russian
  340. Default : No
  341. Forced : No

  342. Text #25
  343. ID : 27
  344. Format : UTF-8
  345. Codec ID : S_TEXT/UTF8
  346. Codec ID/Info : UTF-8 Plain Text
  347. Duration : 1 h 0 min
  348. Bit rate : 53 b/s
  349. Count of elements : 669
  350. Stream size : 23.6 KiB (0%)
  351. Language : Swedish
  352. Default : No
  353. Forced : No

  354. Text #26
  355. ID : 28
  356. Format : UTF-8
  357. Codec ID : S_TEXT/UTF8
  358. Codec ID/Info : UTF-8 Plain Text
  359. Duration : 1 h 0 min
  360. Bit rate : 151 b/s
  361. Count of elements : 841
  362. Stream size : 67.5 KiB (0%)
  363. Language : Thai
  364. Default : No
  365. Forced : No

  366. Text #27
  367. ID : 29
  368. Format : UTF-8
  369. Codec ID : S_TEXT/UTF8
  370. Codec ID/Info : UTF-8 Plain Text
  371. Duration : 1 h 0 min
  372. Bit rate : 53 b/s
  373. Count of elements : 665
  374. Stream size : 23.9 KiB (0%)
  375. Language : Turkish
  376. Default : No
  377. Forced : No

  378. Text #28
  379. ID : 30
  380. Format : UTF-8
  381. Codec ID : S_TEXT/UTF8
  382. Codec ID/Info : UTF-8 Plain Text
  383. Duration : 1 h 0 min
  384. Bit rate : 73 b/s
  385. Count of elements : 801
  386. Stream size : 32.9 KiB (0%)
  387. Language : Vietnamese
  388. Default : No
  389. Forced : No

  390. Text #29
  391. ID : 31
  392. Format : UTF-8
  393. Codec ID : S_TEXT/UTF8
  394. Codec ID/Info : UTF-8 Plain Text
  395. Duration : 1 h 0 min
  396. Bit rate : 55 b/s
  397. Count of elements : 833
  398. Stream size : 24.7 KiB (0%)
  399. Title : Simplified
  400. Language : Chinese
  401. Default : No
  402. Forced : No

  403. Text #30
  404. ID : 32
  405. Format : UTF-8
  406. Codec ID : S_TEXT/UTF8
  407. Codec ID/Info : UTF-8 Plain Text
  408. Duration : 1 h 0 min
  409. Bit rate : 55 b/s
  410. Count of elements : 834
  411. Stream size : 24.5 KiB (0%)
  412. Title : Traditional
  413. Language : Chinese
  414. Default : No
  415. Forced : No

  416. Menu
  417. 00:04:11.418 : en:Credit start
  418. 00:05:23.615 : en:Credit end
复制代码

拉契特前传 / 毒妇拉契特 / 拉契特:黯衣天使 / 拉切德 / 黯衣天使(港)/拉契特 第一季4k Ratched.S01.2160p.NF.WEB.DDP5.1.Atmos.x265-4k美剧下载

拉契特 第一季4k Ratched.S01.2160p.NF.WEB.DDP5.1.Atmos.x265【91.79 GB】
拉契特 第一季4k Ratched.S01.2160p.NF.WEB.DDP5.1.Atmos.x265-NTb[rartv].torrent
(230.59 KB)
回复

使用道具 举报

发烧友评论14

倒序浏览
yllenon1 发表于 前天 15:32 | 显示全部楼层
字幕去哪里找啊哈哈哈
回复 支持 反对

使用道具 举报

h6652199 发表于 2020-10-14 10:17:34 | 显示全部楼层
开头几集有禁闭岛的感觉
回复 支持 反对

使用道具 举报

他山之石2046 发表于 2020-10-13 12:43:51 | 显示全部楼层
医生护士犯罪太容易了,病人防不胜防
回复 支持 反对

使用道具 举报

yanbc62 发表于 2020-10-13 06:23:02 Hao4K手机版 | 显示全部楼层
好看的美剧,堪比大电影制作的精致。
回复 支持 反对

使用道具 举报

火舞耀扬819 发表于 2020-10-12 09:52:04 | 显示全部楼层
不错的美剧
回复 支持 反对

使用道具 举报

anquan52432 发表于 2020-10-10 12:42:51 Hao4K手机版 | 显示全部楼层
下载看看,试试
回复 支持 反对

使用道具 举报

jeckli 发表于 2020-10-4 15:31:51 | 显示全部楼层

好电影,支持一下。
回复 支持 反对

使用道具 举报

jeckli 发表于 2020-10-3 11:32:23 | 显示全部楼层

感谢分享!收藏了!
回复 支持 反对

使用道具 举报

cbhump 发表于 2020-9-28 22:19:17 | 显示全部楼层
已看完 真的很期待下一季
回复 支持 反对

使用道具 举报

asoka052 发表于 2020-9-27 18:26:34 | 显示全部楼层
好剧,支持,感谢分享
回复 支持 反对

使用道具 举报

autumnmaple 发表于 2020-9-24 01:20:59 | 显示全部楼层
感谢分享!收藏了!
回复 支持 反对

使用道具 举报

asvip 发表于 2020-9-23 13:24:35 | 显示全部楼层
医生护士犯罪太容易了,病人防不胜防
回复 支持 反对

使用道具 举报

gymnastika 发表于 2020-9-23 09:50:03 | 显示全部楼层
好电影,支持一下。
回复 支持 反对

使用道具 举报

您需要登录后才可以回帖 登录 | 立即注册

本版积分规则

在线客服

在线客服

服务时间 9:00—18:00

返回顶部

关注微信公众号第一时间推送精彩

官方微信

手机访问

Hao4K影音

专注4k家庭影音,提供家庭影音社区,家庭影音器材库,影音问答平台,影音商城,服务千万家庭影音用户。

本站内容部分由用户自主分享和转载自互联网,转载目的在于传递更多信息,并不代表本网赞同其观点和对其真实性负责。

如有侵权、违反国家法律政策行为,请联系我们,我们会第一时间及时清除和处理!

举报反馈邮箱:admin@hao4k.cn

Copyright  2019-2020  Hao4K影音粤公网安备 44030302001429号    ( 粤ICP备18155646号-1 )|网站地图