专注4K家庭影音, 服务千万家庭影音发烧友!

僵尸世界大战4k World.War.Z.2013.2160p.STAN.WEBRip.DDP5.1.x265-4k电影下载

 关闭
青衫烟雨 发表于 2020-9-22 20:55:56 | 显示全部楼层
电影频道
电影封面:
片  名: 僵尸世界大战4k
电影分类: 动作 科幻 恐怖 
国  家: 美国 
年  代: 2013年
分 辨 率: 4K(3840x2160)
电影格式: MKV|REMUX 
画质标准: 其他 
音质编码: Dolby Digital Plus Audio 其他AAC 
电影声道: 5.1声道 
帧数/FPS: 23.976 FPS
电影语言: 英文原版 
资源大小: 11.33 GB
导  演: 马克·福斯特
豆瓣评分: 7.5 分
中文字幕: /thread-49942-1-1.html
剧情简介: 费城一个毫无征兆的宁静早晨,前联合国调查员盖瑞·雷恩(布拉德·皮特 Brad Pitt 饰)驾车载着妻子凯伦(米瑞·伊诺丝 Mireille Enos 饰)和两个女儿蕾切尔(Abigail Hargrove 饰)、康妮(Sterling Jerins 饰)外出。谁知原本快乐的气氛很快变为恐慌与死亡所替代,连环的爆炸,惊恐逃散的人群,无序的车祸以及啃咬他人的丧尸,繁华大都会转瞬沦陷。盖瑞费尽九牛二虎之力带着妻女逃生,最终逃到联合国副秘书长所在的航母上,进而得知包括美国总统在内的数名大国首脑均已死亡,丧尸病毒业已蔓延全球。为了阻止世界毁灭,格里无奈受命,和来自哈佛的病毒学博士法斯巴克(Elyes Gabel 饰)前往病毒的源头之地寻找解除危机的办法。
  这是一场几乎完全没有希望且充满磨难的征程,世界命运危在旦夕……
地球末日战(港) / 末日之战(台)/僵尸世界大战4k World.War.Z.2013.2160p.STAN.WEBRip.DDP5.1.x265-4k电影信息
  1.         
  2. Video
  3. ID : 1
  4. Format : HEVC
  5. Format/Info : High Efficiency Video Coding
  6. Format profile : Main@L5@High
  7. Codec ID : V_MPEGH/ISO/HEVC
  8. Duration : 1 h 56 min
  9. Bit rate : 13.5 Mb/s
  10. Width : 3 840 pixels
  11. Height : 2 160 pixels
  12. Display aspect ratio : 16:9
  13. Frame rate mode : Constant
  14. Frame rate : 23.976 (24000/1001) FPS
  15. Color space : YUV
  16. Chroma subsampling : 4:2:0
  17. Bit depth : 8 bits
  18. Bits/(Pixel*Frame) : 0.068
  19. Stream size : 11.0 GiB (97%)
  20. Default : Yes
  21. Forced : No
  22. Color range : Limited
  23. Color primaries : BT.709
  24. Transfer characteristics : BT.709
  25. Matrix coefficients : BT.709

  26. Audio
  27. ID : 2
  28. Format : E-AC-3
  29. Format/Info : Enhanced AC-3
  30. Commercial name : Dolby Digital Plus
  31. Codec ID : A_EAC3
  32. Duration : 1 h 56 min
  33. Bit rate mode : Constant
  34. Bit rate : 448 kb/s
  35. Channel(s) : 6 channels
  36. Channel layout : L R C LFE Ls Rs
  37. Sampling rate : 48.0 kHz
  38. Frame rate : 31.250 FPS (1536 SPF)
  39. Compression mode : Lossy
  40. Stream size : 372 MiB (3%)
  41. Language : English
  42. Service kind : Complete Main
  43. Default : Yes
  44. Forced : No

  45. Text
  46. ID : 3
  47. Format : UTF-8
  48. Codec ID : S_TEXT/UTF8
  49. Codec ID/Info : UTF-8 Plain Text
  50. Duration : 1 h 46 min
  51. Bit rate : 58 b/s
  52. Count of elements : 1497
  53. Stream size : 45.5 KiB (0%)
  54. Title : SDH
  55. Language : English
  56. Default : No
  57. Forced : No

  58. Menu
  59. 01:48:47.000 : en:Credits
复制代码

地球末日战(港) / 末日之战(台)/僵尸世界大战4k World.War.Z.2013.2160p.STAN.WEBRip.DDP5.1.x265-4k电影下载

僵尸世界大战4k World.War.Z.2013.2160p.STAN.WEBRip.DDP5.1.x265【11.33 GB】
[Hao4k]僵尸世界大战4k World.War.Z.2013.2160p.STAN.WEBRip.DDP5.1.x265-AJP69.torrent
(57.19 KB, 售价: 2 K币)
回复

使用道具 举报

发烧友评论10

倒序浏览
dyczw 发表于 2020-9-23 06:25:06 | 显示全部楼层
感谢分享,辛苦了
回复 支持 反对

使用道具 举报

hk1560777 发表于 2020-9-22 23:13:37 | 显示全部楼层
如果能再有个字幕就完美了
回复 支持 2 反对 0

使用道具 举报

vividtower 发表于 2020-9-22 22:38:39 | 显示全部楼层
剧情硬伤太多,不过看看热闹还是可以的
回复 支持 0 反对 1

使用道具 举报

wang1427027283 发表于 2020-9-22 22:37:58 | 显示全部楼层
第三遍重温
回复 支持 反对

使用道具 举报

satan766 发表于 2020-9-22 21:53:32 | 显示全部楼层
很不错的大片,感谢分享

补充内容 (2020-9-23 08:57):
找了几个字幕都不匹配~可惜了,等待大神放字幕~
回复 支持 3 反对 0

使用道具 举报

sm-king 发表于 2020-9-22 21:27:17 | 显示全部楼层
这个很有意思啊,感谢楼主
回复 支持 反对

使用道具 举报

您需要登录后才可以回帖 登录 | 立即注册

本版积分规则

在线客服

在线客服

服务时间 9:00—18:00

返回顶部

关注微信公众号第一时间推送精彩

官方微信

手机访问

Hao4K影音

专注4k家庭影音,提供家庭影音社区,家庭影音器材库,影音问答平台,影音商城,服务千万家庭影音用户。

本站内容部分由用户自主分享和转载自互联网,转载目的在于传递更多信息,并不代表本网赞同其观点和对其真实性负责。

如有侵权、违反国家法律政策行为,请联系我们,我们会第一时间及时清除和处理!

举报反馈邮箱:admin@hao4k.cn

Copyright  2019-2020  Hao4K影音粤公网安备 44030302001429号    ( 粤ICP备18155646号-1 )|网站地图