专注4K家庭影音, 服务千万家庭影音发烧友!

[5.1声道] 达芬奇密码(剧场版)2006.AC3上译国语,粤语双音轨

33911057 发表于 2020-9-23 09:28:00 | 显示全部楼层

注意,是匹配论坛4K版本的剧场版,时长148分钟45秒
声轨是国语和粤语,懒得分离了,也给喜欢粤语的朋友分享吧

卢浮宫博物馆馆长被人杀害在卢浮宫内,临死前他费力的留下骇人的符号,从而惊动了符号专家罗伯特·兰登(汤姆·汉克斯)。在破案过程中,兰登结识了死者的孙女,索菲(奥黛丽·塔图),俩人几次遇险,九死一生,逐渐产生爱慕之情。
  随着案情的深入,他们渐渐发现这起谋杀案后隐藏着天大的秘密,甚至牵连到隐匿多年的神秘组织——峋山隐修会。兰登按图索骥,发现所有的解密的密码都藏在达芬奇的作品中,而最让人震惊的是,索菲的身世一时间随之复杂起来,她究竟是谁?峋山隐修会再现江湖想要达到什么目的?


Format                         : AC-3
Format/Info                    : Audio Coding 3
Commercial name                : Dolby Digital
Codec ID                       : A_AC3
Duration                       : 2 h 28 min
Bit rate mode                  : Constant
Bit rate                       : 448 kb/s
Channel(s)                     : 6 channels
Channel layout                 : L R C LFE Ls Rs
Sampling rate                  : 48.0 kHz
Frame rate                     : 31.250 FPS (1536 SPF)
Compression mode               : Lossy
Stream size                    : 477 MiB (70%)
Title                          : 上译国语 AC3-5.1 448Kbps
Language                       : Chinese
Service kind                   : Complete Main
Default                        : No
Forced                         : No


Audio #2
ID                             : 2
Format                         : AC-3
Format/Info                    : Audio Coding 3
Commercial name                : Dolby Digital
Codec ID                       : A_AC3
Duration                       : 2 h 28 min
Bit rate mode                  : Constant
Bit rate                       : 192 kb/s
Channel(s)                     : 2 channels
Channel layout                 : L R
Sampling rate                  : 48.0 kHz
Frame rate                     : 31.250 FPS (1536 SPF)
Compression mode               : Lossy
Stream size                    : 204 MiB (30%)
Title                          : TVB粤语 AC3-2.0 192Kbps
Language                       : Chinese
Service kind                   : Complete Main
https://pan.baidu.com/s/1FROXryQX7bJGtAtbkTR8QQ


达芬奇密码剧场版.txt

75 Bytes

售价: 4 K币  [记录]

回复

使用道具 举报

发烧友评论6

倒序浏览
33911057 发表于 2020-9-24 11:40:57 | 显示全部楼层
McCor 发表于 2020-9-24 09:11
各种方法都试了 移动过  重命名 都不行  就这个文件没法下载  其他游戏 音乐 都可以下载

百度云内还是目前网页的TXT文件无法下载
回复 支持 反对

使用道具 举报

 楼主| McCor 发表于 2020-9-24 09:11:17 | 显示全部楼层
33911057 发表于 2020-9-23 14:28
没有,可以正常下载

各种方法都试了 移动过  重命名 都不行  就这个文件没法下载  其他游戏 音乐 都可以下载
回复 支持 反对

使用道具 举报

KingsMan_0083 发表于 2020-9-24 08:45:38 | 显示全部楼层
达芬奇密码,好影片呀。
回复 支持 反对

使用道具 举报

33911057 发表于 2020-9-23 14:28:32 | 显示全部楼层
McCor 发表于 2020-9-23 12:41
提示 网络异常 无法下载??? 资源被和谐了吗?

没有,可以正常下载
回复 支持 反对

使用道具 举报

 楼主| McCor 发表于 2020-9-23 12:41:08 | 显示全部楼层
提示 网络异常 无法下载??? 资源被和谐了吗?
回复 支持 反对

使用道具 举报

您需要登录后才可以回帖 登录 | 立即注册

本版积分规则


0关注

19粉丝

7帖子

社区广告

在线客服

在线客服

服务时间 9:00—18:00

返回顶部

关注微信公众号第一时间推送精彩

官方微信

手机访问

Hao4K影音

专注4k家庭影音,提供家庭影音社区,家庭影音器材库,影音问答平台,影音商城,服务千万家庭影音用户。

本站内容部分由用户自主分享和转载自互联网,转载目的在于传递更多信息,并不代表本网赞同其观点和对其真实性负责。

如有侵权、违反国家法律政策行为,请联系我们,我们会第一时间及时清除和处理!

举报反馈邮箱:admin@hao4k.cn

Copyright  2019-2020  Hao4K影音粤公网安备 44030302001429号    ( 粤ICP备18155646号-1 )|网站地图